13 грехов / 13 Sins (2014) HDRip

 

Создавать темы 13-Сен-2015 16:29

-13 грехов / 13 Sins (2014) HDRip«Играешь не ты, играют тобой»- Производство: США / Automatik Entertainment, Dimension Films, IM Global
Жанр: триллер, ужасы
Режиссер: Даниэль Штамм
Продюсер: Брайан Кэвэна-Джонс, Кики Мияке, Стивен Сквилланте
Актеры: Марк Веббер, Рутина Уэсли, Девон Грайе, Прюитт Тэйлор Винс, Том Бауэр, Рон Перлман, Клайд Джонс, Денин Тайлер, Том Лосон мл., Шэрон Смит
Описание:
Эллиот Бриндл - умный кроткий сотрудник службы социального обеспечения, тонущий в долгах. Всё меняется, когда раздаётся телефонный звонок. Парню сообщают, что он становится участником ТВ-шоу, условия простые - выполнить 13 заданий, какими бы странными они ни были; на кону - денежный приз, сумма которого увеличивается с каждым выполненным заданием. Эллиот следует первым инструкциям и с лёгкостью съедает пойманную муху. Вскоре Эллиот хочет, но не может прекратить игру, хотя задачи становятся более опасными, а точка невозврата скоро будет пройдена.

Продолжительность: 01:32:20
Качество: HDRip
Перевод: Профессиональный (полное дублирование) (NTV+)
Субтитры: Отсутствуют
Видео: 672x288, 23.976 fps, XviD ~988 kbps avg, 0.213 bit/pixel
Аудио: 48.0 kHz, MPEG Layer 3, 2 ch, ~128 kbps avg

Mediainfo:

General
Complete name               : C:\Video\13 Sins HDRip.avi
Format                      : AVI
Format/Info                 : Audio Video Interleave
File size                   : 744 MiB
Duration                    : 1h 32mn
Overall bit rate            : 1 125 Kbps
Writing application         : VirtualDubMod 1.5.10.3 | [url=http://www.virtualdub-fr.org]www.virtualdub-fr.org[/url] || (build 2550/release)
Writing library             : VirtualDubMod build 2550/release
Video
ID                          : 0
Format                      : MPEG-4 Visual
Format profile              : Advanced [email protected]
Format settings, BVOP       : 2
Format settings, QPel       : No
Format settings, GMC        : No warppoints
Format settings, Matrix     : Default (MPEG)
Codec ID                    : XVID
Codec ID/Hint               : XviD
Duration                    : 1h 32mn
Bit rate                    : 988 Kbps
Width                       : 672 pixels
Height                      : 288 pixels
Display aspect ratio        : 2.35:1
Frame rate                  : 23.976 fps
Color space                 : YUV
Chroma subsampling          : 4:2:0
Bit depth                   : 8 bits
Scan type                   : Progressive
Compression mode            : Lossy
Bits/(Pixel*Frame)          : 0.213
Stream size                 : 654 MiB (88%)
Writing library             : XviD 1.2.1 (UTC 2008-12-04)
Audio
ID                          : 1
Format                      : MPEG Audio
Format version              : Version 1
Format profile              : Layer 3
Codec ID                    : 55
Codec ID/Hint               : MP3
Duration                    : 1h 32mn
Bit rate mode               : Constant
Bit rate                    : 128 Kbps
Channel(s)                  : 2 channels
Sampling rate               : 48.0 KHz
Compression mode            : Lossy
Stream size                 : 84.5 MiB (11%)
Alignment                   : Aligned on interleaves
Interleave, duration        : 42 ms (1.00 video frame)
Interleave, preload duratio : 504 ms
Writing library             : LAME3.99r
Encoding settings           : -m s -V 4 -q 0 -lowpass 17 -b 128
Скриншоты:
Время раздачи: 24/7
Яндекс.Метрика
Рейтинг@Mail.ru