[ Сегодня на трекере фрилич! Идет свободное скачивание без начисления Download ]

Ложь во спасение / The Good Lie (2014) BDRip 1080p | iTunes

 

Создавать темы 03-Сен-2015 11:04

Название: Ложь во спасение
Оригинальное название: The Good Lie
Год выпуска: 2014
Жанр: Драма
Выпущено: Кения, Индия, США, Alcon Entertainment , Black Label Media , Blue Sky Films
Режиссер: Филипп Фалардо
В ролях: Риз Уизерспун, Арнольд Окенг, Хер Дуани, Эммануэль Джал, Кори Столл, Куот Виль, Феми Огунс, Сара Бэйкер, Линдси Гаррет
О фильме: Военные беженцы из Судана получили разрешение на иммиграцию в Канзас-Сити, спустя 13 лет после того, как попали в лагерь беженцев, спасаясь от пуль солдат. Здесь им предстоит начать жизнь заново, найти работу, преодолевать трудности. "Потерянные мальчики Судана" - так назвали этих детей гражданской войны, разразившейся в Судане в 1983 году, когда сжигались целые деревни, а бомбы летели на мирные селения, уничтожая детей, стариков, женщин...

Качество: BDRip 1080p
Видео: MPEG-4 AVC, 8826 Кбит/с, 1920x1080
Аудио: Русский (AC3, 6 ch, 384 Кбит/с), английский (АС3, 6 ch, 640 Кбит/с)
Продолжительность: 01:50:00
Перевод: Профессиональный многоголосый [iTunes Russia]
Дополнительно: Сохранены оригинальные чаптеры как на Blu-ray

Скриншоты

MediaInfo

General
Unique ID : 180487843790394883241453165144754840488 (0x87C8B1BD57920307A336F34046B763A8)
Complete name : D:Видео 2L0zh.B0.CpaCeH1e.2014.P.BDRip.1080p.mkv
Format : Matroska
Format version : Version 2
File size : 7.57 GiB
Duration : 1h 50mn
Overall bit rate : 9 837 Kbps
Encoded date : UTC 2015-09-02 22:55:14
Writing application : mkvmerge v8.3.0 ('Over the Horizon') 64bit
Writing library : libebml v1.3.1 + libmatroska v1.4.2
DURATION : 01:50:08.128000000
NUMBER_OF_FRAMES : 206504
NUMBER_OF_BYTES : 317190144
_STATISTICS_WRITING_APP : mkvmerge v8.3.0 ('Over the Horizon') 64bit
_STATISTICS_WRITING_DATE_UTC : 2015-09-02 22:55:14
_STATISTICS_TAGS : BPS DURATION NUMBER_OF_FRAMES NUMBER_OF_BYTES
Video
ID : 1
Format : AVC
Format/Info : Advanced Video Codec
Format profile : [email protected]
Format settings, CABAC : Yes
Format settings, ReFrames : 4 frames
Codec ID : V_MPEG4/ISO/AVC
Duration : 1h 50mn
Bit rate : 8 826 Kbps
Width : 1 920 pixels
Height : 1 080 pixels
Display aspect ratio : 16:9
Frame rate mode : Constant
Frame rate : 23.976 fps
Color space : YUV
Chroma subsampling : 4:2:0
Bit depth : 8 bits
Scan type : Progressive
Bits/(Pixel*Frame) : 0.178
Stream size : 6.63 GiB (88%)
Writing library : x264 core 142 r2479 dd79a61
Encoding settings : cabac=1 / ref=4 / deblock=1:0:0 / analyse=0x3:0x133 / me=umh / subme=7 / psy=1 / psy_rd=1.00:0.00 / mixed_ref=1 / me_range=16 / chroma_me=1 / trellis=1 / 8x8dct=1 / cqm=0 / deadzone=21,11 / fast_pskip=0 / chroma_qp_offset=-2 / threads=60 / lookahead_threads=8 / sliced_threads=0 / nr=0 / decimate=1 / interlaced=0 / bluray_compat=0 / constrained_intra=0 / bframes=3 / b_pyramid=2 / b_adapt=1 / b_bias=0 / direct=1 / weightb=1 / open_gop=0 / weightp=2 / keyint=250 / keyint_min=23 / scenecut=40 / intra_refresh=0 / rc_lookahead=40 / rc=2pass / mbtree=1 / bitrate=8826 / ratetol=1.0 / qcomp=0.60 / qpmin=0 / qpmax=69 / qpstep=4 / cplxblur=20.0 / qblur=0.5 / ip_ratio=1.40 / aq=1:1.00
Language : English
Default : Yes
Forced : No
DURATION : 01:49:59.896000000
NUMBER_OF_FRAMES : 158239
NUMBER_OF_BYTES : 7278307581
_STATISTICS_WRITING_APP : mkvmerge v8.3.0 ('Over the Horizon') 64bit
_STATISTICS_WRITING_DATE_UTC : 2015-09-02 22:55:14
_STATISTICS_TAGS : BPS DURATION NUMBER_OF_FRAMES NUMBER_OF_BYTES
Audio #1
ID : 2
Format : AC-3
Format/Info : Audio Coding 3
Mode extension : CM (complete main)
Format settings, Endianness : Big
Codec ID : A_AC3
Duration : 1h 50mn
Bit rate mode : Constant
Bit rate : 384 Kbps
Channel(s) : 6 channels
Channel positions : Front: L C R, Side: L R, LFE
Sampling rate : 48.0 KHz
Bit depth : 16 bits
Compression mode : Lossy
Stream size : 302 MiB (4%)
Language : Russian
Default : Yes
Forced : No
Audio #2
ID : 3
Format : AC-3
Format/Info : Audio Coding 3
Mode extension : CM (complete main)
Format settings, Endianness : Big
Codec ID : A_AC3
Duration : 1h 50mn
Bit rate mode : Constant
Bit rate : 640 Kbps
Channel(s) : 6 channels
Channel positions : Front: L C R, Side: L R, LFE
Sampling rate : 48.0 KHz
Bit depth : 16 bits
Compression mode : Lossy
Stream size : 504 MiB (7%)
Language : English
Default : No
Forced : No
Menu
00:00:00.000 : en:00:00:00.000
00:09:48.922 : en:00:09:48.922
00:19:44.683 : en:00:19:44.683
00:29:59.673 : en:00:29:59.673
00:39:51.973 : en:00:39:51.973
00:50:28.817 : en:00:50:28.817
00:59:32.944 : en:00:59:32.944
01:10:06.786 : en:01:10:06.786
01:19:14.583 : en:01:19:14.583
01:30:26.171 : en:01:30:26.171
01:40:44.538 : en:01:40:44.538
01:43:16.482 : en:01:43:16.482
Яндекс.Метрика
Рейтинг@Mail.ru