Безумный Макс: Дорога ярости / Mad Max: Fury Road (2015) BDRemux 1080p | iTunes

 

Создавать темы 14-Авг-2015 22:38

Безумный Макс: Дорога ярости / Mad Max: Fury RoadГод выпуска: 2015
Жанр: Фантастика, боевик, триллер, приключения, постапокалипсис
Выпущено: Австралия, США, Kennedy Miller Productions, Village Roadshow Pictures
Режиссер: Джордж Миллер
В ролях: Том Харди, Шарлиз Терон, Николас Холт, Хью Кияс-Бёрн, Джош Хелман, Нэйтан Джонс, Зои Кравиц, Роузи Хантингтон-Уайтли, Райли Кио, Эбби Ли, Кортни Итон, Джон Ховард, Ричард Картер, Иота, Энгус Сэмпсон, Дженнифер Хэйгэн, Меган Гэйл, Мелисса Яффер, Мелита Юришич, Джиллиан Джонс
О фильме: Вскоре после отмщения за смерть жены и сына, Макс Рокатански покинул ряды «Основного силового патруля» и уехал в глушь, где скитается в одиночестве, пока мир медленно падает в последствии нефтяного кризиса и глобальной войны. Не имея ничего, кроме своей машины «Перехватчик», Максу предстоит научиться, как выжить в пост-апокалиптической пустоши и сражаться с жестокими, безжалостными воинами, которые населяют её.
Семпл
Файл
Качество: Blu-Ray Remux (1080p)
Видео: MPEG-4 AVC, 24882 Кбит/с, 1920x1080
Аудио: Русский (AC3, 6 ch, 384 Кбит/с), английский (TrueHD, 8 ch, 5692 Кбит/с), (AC3, 6 ch, 448 Кбит/с), (AC3, 6 ch, 384 Кбит/с)
Размер: 26.79 ГБ
Продолжительность: 02:00:23
Перевод: Дублированный [iTunes]
Субтитры: Русские (forced, full), английские (full, SDH)

MI

Общее
Уникальный идентификатор                 : 190319396798039585305741606028793340000 (0x8F2E2EBA3A3D1E39AD43F7B4E647E060)
Полное имя                               : C:Mad.Max.Fury.Road.2015.BDRemux.1080p.bog3417.mkv
Формат                                   : Matroska
Версия формата                           : Version 2
Размер файла                             : 26,8 Гбайт
Продолжительность                        : 2 ч. 0 м.
Режим общего битрейта                    : Переменный
Общий поток                              : 31,9 Мбит/сек
Дата кодирования                         : UTC 2015-08-14 01:31:19
Программа кодирования                    : mkvmerge v7.9.0 ('Birds') 64bit
Библиотека кодирования                   : libebml v1.3.1 + libmatroska v1.4.2
Видео
Идентификатор                            : 1
Формат                                   : AVC
Формат/Информация                        : Advanced Video Codec
Профиль формата                          : [email protected]
Параметр CABAC формата                   : Да
Параметр ReFrames формата                : 2 кадра
Идентификатор кодека                     : V_MPEG4/ISO/AVC
Продолжительность                        : 2 ч. 0 м.
Вид битрейта                             : Переменный
Ширина                                   : 1920 пикселей
Высота                                   : 1080 пикселей
Соотношение сторон                       : 16:9
Режим частоты кадров                     : Постоянный
Частота кадров                           : 23,976 кадра/сек
Цветовое пространство                    : YUV
Субдискретизация насыщенности            : 4:2:0
Битовая глубина                          : 8 бит
Тип развёртки                            : Прогрессивная
Default                                  : Да
Forced                                   : Нет
Аудио #1
Идентификатор                            : 2
Формат                                   : AC-3
Формат/Информация                        : Audio Coding 3
Расширение режима                        : CM (complete main)
Параметр Endianness формата              : Big
Идентификатор кодека                     : A_AC3
Продолжительность                        : 2 ч. 0 м.
Вид битрейта                             : Постоянный
Битрейт                                  : 384 Кбит/сек
Каналы                                   : 6 каналов
Расположение каналов                     : Front: L C R, Side: L R, LFE
Частота                                  : 48,0 КГц
Метод сжатия                             : С потерями
Задержка видео                           : 1 с. 0 мс.
Размер потока                            : 331 Мбайт (1%)
Язык                                     : Russian
Default                                  : Да
Forced                                   : Нет
Аудио #2
Идентификатор                            : 3
Формат                                   : TrueHD
Идентификатор кодека                     : A_TRUEHD
Продолжительность                        : 2 ч. 0 м.
Вид битрейта                             : Переменный
Максимальный битрейт                     : 8412 Кбит/сек
Каналы                                   : 8 каналов
Расположение каналов                     : Front: L C R, Side: L R, Back: L R, LFE
Частота                                  : 48,0 КГц
Метод сжатия                             : Без потерь
Язык                                     : English
Default                                  : Нет
Forced                                   : Нет
Аудио #3
Идентификатор                            : 4
Формат                                   : AC-3
Формат/Информация                        : Audio Coding 3
Расширение режима                        : CM (complete main)
Параметр Endianness формата              : Big
Идентификатор кодека                     : A_AC3
Продолжительность                        : 2 ч. 0 м.
Вид битрейта                             : Постоянный
Битрейт                                  : 384 Кбит/сек
Каналы                                   : 6 каналов
Расположение каналов                     : Front: L C R, Side: L R, LFE
Частота                                  : 48,0 КГц
Метод сжатия                             : С потерями
Размер потока                            : 331 Мбайт (1%)
Язык                                     : English
Default                                  : Нет
Forced                                   : Нет
Аудио #4
Идентификатор                            : 5
Формат                                   : AC-3
Формат/Информация                        : Audio Coding 3
Расширение режима                        : CM (complete main)
Параметр Endianness формата              : Big
Идентификатор кодека                     : A_AC3
Продолжительность                        : 2 ч. 0 м.
Вид битрейта                             : Постоянный
Битрейт                                  : 448 Кбит/сек
Каналы                                   : 6 каналов
Расположение каналов                     : Front: L C R, Side: L R, LFE
Частота                                  : 48,0 КГц
Метод сжатия                             : С потерями
Размер потока                            : 386 Мбайт (1%)
Язык                                     : English
Default                                  : Нет
Forced                                   : Нет
Текст #1
Идентификатор                            : 6
Формат                                   : UTF-8
Идентификатор кодека                     : S_TEXT/UTF8
Идентификатор кодека/Информация          : UTF-8 Plain Text
Язык                                     : Russian
Default                                  : Да
Forced                                   : Нет
Текст #2
Идентификатор                            : 7
Формат                                   : UTF-8
Идентификатор кодека                     : S_TEXT/UTF8
Идентификатор кодека/Информация          : UTF-8 Plain Text
Язык                                     : Russian
Default                                  : Нет
Forced                                   : Нет
Текст #3
Идентификатор                            : 8
Формат                                   : UTF-8
Идентификатор кодека                     : S_TEXT/UTF8
Идентификатор кодека/Информация          : UTF-8 Plain Text
Заголовок                                : English
Язык                                     : English
Default                                  : Нет
Forced                                   : Нет
Текст #4
Идентификатор                            : 9
Формат                                   : UTF-8
Идентификатор кодека                     : S_TEXT/UTF8
Идентификатор кодека/Информация          : UTF-8 Plain Text
Заголовок                                : English SDH
Язык                                     : English
Default                                  : Нет
Forced                                   : Нет
Меню
00:00:00.000                             : en:00:00:00.000
00:10:42.475                             : en:00:10:42.475
00:19:06.437                             : en:00:19:06.437
00:30:12.310                             : en:00:30:12.310
00:42:55.615                             : en:00:42:55.615
00:49:33.345                             : en:00:49:33.345
00:59:55.175                             : en:00:59:55.175
01:13:02.545                             : en:01:13:02.545
01:22:08.924                             : en:01:22:08.924
01:30:02.731                             : en:01:30:02.731
01:40:39.867                             : en:01:40:39.867
01:49:12.546                             : en:01:49:12.546
01:53:06.279                             : en:01:53:06.279

Скриншоты:

Яндекс.Метрика
Рейтинг@Mail.ru