[ Сегодня на трекере фрилич! Идет свободное скачивание без начисления Download ]

Вычислитель (2014) BDRip

 

Создавать темы 28-Июл-2015 08:48

Вычислитель (2014) BDRip - Производство: Россия / Art Pictures Studio, ВГТРК
Жанр: фантастика
Режиссер: Дмитрий Грачев
Продюсер: Алексей Куренков, Дмитрий Медников, Фёдор Бондарчук
Актеры: Евгений Миронов, Винни Джонс, Анна Чиповская, Иван Верховых, Владас Багдонас, Алексей Колубков, Никита Панфилов, Линда Нигматулина, Пётр Сковцов, Ирене Мускара
Описание:
Десять заключенных, приговоренных к пожизненному изгнанию с планеты XT-59, отправляются в опасный путь через Саргассово Болото. Группа сразу делится на две части: Эрвин и Кристи идут на поиск Счастливых Островов, Юст ведет остальных к Гнилой Мели. Однако долгое время их маршруты практически совпадают. В первый же вечер Эрвин понимает, что его должны убить – в прошлой жизни он занимал слишком высокий пост, и теперь он опасен для тех, кто пришел к власти. Выбрав в попутчицы Кристи, он сразу старается уйти подальше от остальных членов группы, чтобы обезопасить себя. На пути к Счастливым островам герои преодолевают массу препятствий. Цена этому — свобода и счастье.


Дата премьеры в России: 18 декабря 2014, «Централ Партнершип»
Релиз от: bog3417
Продолжительность: 01:23:12
Качество видео: BDRip исх. Vychislitel 2014 1080p FRA Blu-ray AVC DTS-HD MA 5.1-WiHD
Перевод: Не требуется (Лицензия)
Субтитры: Отсутствуют
Видео: Xvid, 720x304, ~1898 Kbps
Аудио: AC3, 6 ch, 448 Kbps
Семпл: Скачать

Mediainfo:

Общее
Полное имя                               : C:\Titanium.2014.BDRip.by.bog3417.avi
Формат                                   : AVI
Формат/Информация                        : Audio Video Interleave
Размер файла                             : 1,37 Гбайт
Продолжительность                        : 1 ч. 23 м.
Общий поток                              : 2355 Кбит/сек
Режиссёр                                 : by_bog3417
Программа кодирования                    : VirtualDubModRus 1.5.10.2 (build 2542/release)
Библиотека кодирования                   : VirtualDubMod build 2542/release
Видео
Идентификатор                            : 0
Формат                                   : MPEG-4 Visual
Профиль формата                          : Advanced [email protected]
Параметр BVOP формата                    : 1
Параметр QPel формата                    : Нет
Параметр GMC формата                     : Без точки перехода
Параметр матрицы формата                 : Выборочная
Идентификатор кодека                     : XVID
Идентификатор кодека/Подсказка           : XviD
Продолжительность                        : 1 ч. 23 м.
Битрейт                                  : 1898 Кбит/сек
Ширина                                   : 720 пикселей
Высота                                   : 304 пикселя
Соотношение сторон                       : 2,35:1
Частота кадров                           : 25,000 кадров/сек
Цветовое пространство                    : YUV
Субдискретизация насыщенности            : 4:2:0
Битовая глубина                          : 8 бит
Тип развёртки                            : Прогрессивная
Метод сжатия                             : С потерями
Бит/(Пиксели*Кадры)                      : 0.347
Размер потока                            : 1,10 Гбайт (81%)
Библиотека кодирования                   : XviD 73
Аудио
Идентификатор                            : 1
Формат                                   : AC-3
Формат/Информация                        : Audio Coding 3
Расширение режима                        : CM (complete main)
Параметр Endianness формата              : Big
Идентификатор кодека                     : 2000
Продолжительность                        : 1 ч. 23 м.
Вид битрейта                             : Постоянный
Битрейт                                  : 448 Кбит/сек
Каналы                                   : 6 каналов
Расположение каналов                     : Front: L C R, Side: L R, LFE
Частота                                  : 48,0 КГц
Метод сжатия                             : С потерями
Размер потока                            : 267 Мбайт (19%)
Выравнивание                             : Разделение по промежуткам
Продолжительность промежутка             : 40  мс. (1,00 видеокадр)
Время предзагрузки промежутка            : 500  мс.
Скриншоты:
-Время раздачи: Круглосуточно (до 8 сидов)
Яндекс.Метрика
Рейтинг@Mail.ru