Вместе навсегда (Таиланд) (Александр Березань) (1-4 из 4) [2013 г., Боевик,драма, SATRip]

 

Создавать темы 11-Дек-2013 00:33

Вместе навсегда (Таиланд)--- Год выпуска: 2013
Страна: Украина ,Film.ua Production
Жанр: Боевик,драма
Продолжительность: 4 x ~ 00:42:00
Перевод: Не требуется-Режиссер: Александр Березань-В ролях: Павел Трубинер, София Березань, Анастасия Безрук, Дмитрий Фрид, Ли Берлинская, Азиз Бейшеналиев-Описание: После смерти Наташи в жизни ее мужа Александра остается единственная радость – их общая дочь Соня. Спустя год после трагедии Саша привозит Соню отпраздновать день рождения в Таиланд, в отель, где много лет назад он познакомился с ее матерью. Но в Таиланде вместо райского отдыха их подстерегают опасности. Дочке тайского мафиози срочно нужен донор сердца, а русская девочка идеально подходит по всем параметрам. Отцы готовы на всё ради счастья своих дочерей. Чья любовь окажется сильнее?-Сэмпл-Качество: SATRip
Формат: AVI
Видео кодек: XviD
Аудио кодек: AC3
Видео: 720x384 (1.88:1), 25 fps, XviD MPEG-4 ~1601 kbps avg, 0.23 bit/pixel
Аудио: 48 kHz, AC3 Dolby Digital, 2/0 (L,R) ch, ~192 kbps-

Скриншоты

MediaInfo

Общее
Полное имя : D:\Мои фильмы\Tailand_Vmeste_Navsegda_1-4iz4_2013_XviD_SATRip\Tailand_Vmeste_Navsegda_1_iz_4_2013_SATRip.avi
Формат : AVI
Формат/Информация : Audio Video Interleave
Размер файла : 550 Мбайт
Продолжительность : 42 м.
Общий поток : 1804 Кбит/сек
Программа кодирования : VirtualDubModRus 1.5.10.2 (build 2542/release)
Библиотека кодирования : VirtualDub build 35491/release
Видео
Идентификатор : 0
Формат : MPEG-4 Visual
Профиль формата : Advanced [email protected]
Параметр BVOP формата : 2
Параметр QPel формата : Нет
Параметр GMC формата : Без точки перехода
Параметр матрицы формата : Default (H.263)
Режим смешивания : Сжатый битовый поток
Идентификатор кодека : XVID
Идентификатор кодека/Подсказка : XviD
Продолжительность : 42 м.
Битрейт : 1602 Кбит/сек
Ширина : 720 пикселей
Высота : 384 пикселя
Соотношение сторон : 1,85:1
Частота кадров : 25,000 кадров/сек
Цветовое пространство : YUV
Субдискретизация насыщенности : 4:2:0
Битовая глубина : 8 бит
Тип развёртки : Прогрессивная
Метод сжатия : С потерями
Бит/(Пиксели*Кадры) : 0.232
Размер потока : 489 Мбайт (89%)
Библиотека кодирования : XviD 64
Аудио
Идентификатор : 1
Формат : AC-3
Формат/Информация : Audio Coding 3
Расширение режима : CM (complete main)
Параметр Endianness формата : Big
Идентификатор кодека : 2000
Продолжительность : 42 м.
Вид битрейта : Постоянный
Битрейт : 192 Кбит/сек
Каналы : 2 канала
Расположение каналов : Front: L R
Частота : 48,0 КГц
Битовая глубина : 16 бит
Метод сжатия : С потерями
Размер потока : 58,6 Мбайт (11%)
Выравнивание : Соединение по промежуткам
Продолжительность промежутка : 40 мс. (1,00 видеокадр)
Время предзагрузки промежутка : 512 мс.

Создавать темы 12-Дек-2013 18:00 (спустя 1 день 17 часов)

Скриншоты исправлены.
Яндекс.Метрика
Рейтинг@Mail.ru