[ Сегодня на трекере фрилич! Идет свободное скачивание без начисления Download ]

Большая игра / Big Game (2014) WEB-DL 720p | iTunes

 

Создавать темы 26-Июн-2015 17:18

Информация о фильме
Название: Большая игра
Оригинальное название: Big Game
Год выхода: 2014
Жанр: боевик, приключения
Режиссер: Ялмари Хеландер
В ролях: Сэмюэл Л. Джексон, Онни Томмила, Рэй Стивенсон, Виктор Гарбер, Мехмет Куртулус, Тед Левайн, Йорма Томмила, Ристо Сэлми, Фелисити Хаффман, Джим Бродбент
О фильме:
История робкого подростка по имени Оскари. Как и его прадеды, согласно традициям, мальчик должен провести один день и одну ночь в непроходимой глуши. Вооружённый только луком и стрелами, он должен вернуться с добычей, которая ознаменует его становление как мужчины. Кто бы мог подумать, что такой добычей станет президент США! Вот так судьба одного из самых влиятельных людей во всем мире оказывается в руках подростка. Вовлеченные в смертельно опасную, но от этого не менее смешную игру в «кошки-мышки», имея всего несколько часов форы — Оскари и Президент США должны сплотиться, чтобы пережить самую необычную ночь в своей жизни.

Выпущено: Финляндия, Великобритания, Германия / Subzero Film Entertainment, Altitude Film Entertainment, Egoli Tossell Film
Продолжительность: 01:30:23
Озвучивание: Дублированное [iTunes]
Файл
Формат: MKV
Качество: WEB-DL 720p
Видео: 3952 kb/s, 1280x532
Аудио: AC3, 384 kb/s (6 ch)

MI

Format : Matroska
Format version : Version 4 / Version 2
File size : 2.79 GiB
Duration : 1h 30mn
Overall bit rate : 4 424 Kbps
Encoded date : UTC 2015-06-25 18:08:05
Writing application : mkvmerge v6.9.1 ('Blue Panther') 64bit built on Apr 18 2014 18:23:38
Writing library : libebml v1.3.0 + libmatroska v1.4.1
Video
ID : 1
Format : AVC
Format/Info : Advanced Video Codec
Format profile : [email protected]
Format settings, CABAC : No
Format settings, ReFrames : 2 frames
Codec ID : V_MPEG4/ISO/AVC
Duration : 1h 30mn
Bit rate : 3 952 Kbps
Width : 1 280 pixels
Height : 532 pixels
Display aspect ratio : 2.40:1
Frame rate mode : Constant
Frame rate : 24.000 fps
Color space : YUV
Chroma subsampling : 4:2:0
Bit depth : 8 bits
Scan type : Progressive
Bits/(Pixel*Frame) : 0.242
Stream size : 2.49 GiB (89%)
Language : English
Default : Yes
Forced : No
Color primaries : BT.709
Transfer characteristics : BT.709
Matrix coefficients : BT.709
Audio
ID : 2
Format : AC-3
Format/Info : Audio Coding 3
Mode extension : CM (complete main)
Format settings, Endianness : Big
Codec ID : A_AC3
Duration : 1h 30mn
Bit rate mode : Constant
Bit rate : 384 Kbps
Channel(s) : 6 channels
Channel positions : Front: L C R, Side: L R, LFE
Sampling rate : 48.0 KHz
Bit depth : 16 bits
Compression mode : Lossy
Stream size : 248 MiB (9%)
Language : Russian
Default : Yes
Forced : No
Menu
00:00:00.000 : en:Глава 1
00:04:14.000 : en:Глава 2
00:07:45.000 : en:Глава 3
00:12:24.000 : en:Глава 4
00:16:35.000 : en:Глава 5
00:20:17.000 : en:Глава 6
00:25:05.000 : en:Глава 7
00:28:38.000 : en:Глава 8
00:33:53.000 : en:Глава 9
00:37:40.000 : en:Глава 10
00:43:11.000 : en:Глава 11
00:48:43.000 : en:Глава 12
00:54:42.000 : en:Глава 13
01:00:34.000 : en:Глава 14
01:06:24.000 : en:Глава 15
01:11:13.000 : en:Глава 16
01:16:13.000 : en:Глава 17
01:20:44.000 : en:Глава 18

Скриншоты:

Яндекс.Метрика
Рейтинг@Mail.ru