[ Сегодня на трекере фрилич! Идет свободное скачивание без начисления Download ]

Игрок / The Gambler [2014] BDRip-AVC 60fps

 

Создавать темы 05-Июн-2015 22:11

Игрок / The GamblerГод выпуска: 2014
Страна: США
Жанр: триллер, драма, криминал
Продолжительность: 01:50:58
Перевод: Дубляж
Субтитры: русские (Полные)-Режиссер: Руперт Уайатт / Rupert Wyatt-В ролях: Марк Уолберг (Jim Bennett), Джон Гудман (Frank), Бри Ларсон (Amy Phillips), Майкл Кеннет Уильямс (Neville Baraka), Джессика Лэнг (Roberta), Гриффин Кливлэнд (Young Jim), Омар Лейва (Valet), Энтони Келли (Lamar Allen), Стив Парк (Number 2), Эмори Коэн (Dexter), Джордж Кеннеди (Ed), Чил Конг (Blackjack Dealer #1)-Описание:
Джим Беннетт - рисковый парень. Днем он - гениальный писатель и отличный преподаватель, ночью - заядлый игрок. Он глубоко увяз в мире, где закон - пустой звук, и однажды ставит на кон все, включая собственную жизнь. Те, кому он должен, опасны, а помочь ему может только тот, кто еще опаснее.
Достоин ли второго шанса человек, проигравший самого себя? А, если да, то - во сколько это ему обойдется?--Качество: BDRip-AVC 60fps
Формат: MKV
Видео кодек: AVC
Аудио кодек:AC3
Видео: AVC, 1024x424 (2.40:1), 3900 kbps, 59,940 fps, 0,150 bpp
Аудио: русский / AC3 / 5.1 / 48 kHz / 640 kbps / 16 bit |Дубляж|
Навигация по главам: есть-

MI

General
Unique ID : 201572836511336925257788290351802304019 (0x97A5842473EAFAD8801E108DDA8F4613)
Complete name : A:\Фильмы\BDRip-avc\Игрок 2014 BDrip-avc 60fps.mkv
Format : Matroska
Format version : Version 4 / Version 2
File size : 3.52 GiB
Duration : 1h 50mn
Overall bit rate : 4 544 Kbps
Movie name : R.G HD-Films by Tiberiumsun69
Encoded date : UTC 2015-06-03 14:25:57
Writing application : mkvmerge v7.9.0 ('Birds') 64bit
Writing library : libebml v1.3.1 + libmatroska v1.4.2
Attachment : Yes / Yes
Video
ID : 1
Format : AVC
Format/Info : Advanced Video Codec
Format profile : [email protected]
Format settings, CABAC : Yes
Format settings, ReFrames : 4 frames
Codec ID : V_MPEG4/ISO/AVC
Duration : 1h 50mn
Bit rate : 3 900 Kbps
Width : 1 024 pixels
Height : 424 pixels
Display aspect ratio : 2.40:1
Frame rate : 59.940 fps
Color space : YUV
Chroma subsampling : 4:2:0
Bit depth : 8 bits
Scan type : Progressive
Bits/(Pixel*Frame) : 0.150
Stream size : 2.96 GiB (84%)
Title : R.G HD-Films by Tiberiumsun69
Writing library : x264 core 146 r2538 121396c
Encoding settings : cabac=1 / ref=4 / deblock=1:0:0 / analyse=0x3:0x113 / me=umh / subme=11 / psy=1 / psy_rd=1.00:0.10 / mixed_ref=1 / me_range=32 / chroma_me=1 / trellis=2 / 8x8dct=1 / cqm=0 / deadzone=21,11 / fast_pskip=0 / chroma_qp_offset=-3 / threads=12 / lookahead_threads=1 / sliced_threads=0 / nr=0 / decimate=1 / interlaced=0 / bluray_compat=0 / constrained_intra=0 / bframes=3 / b_pyramid=2 / b_adapt=2 / b_bias=0 / direct=3 / weightb=1 / open_gop=0 / weightp=2 / keyint=600 / keyint_min=59 / scenecut=40 / intra_refresh=0 / rc_lookahead=60 / rc=2pass / mbtree=1 / bitrate=3900 / ratetol=1.0 / qcomp=0.60 / qpmin=0 / qpmax=69 / qpstep=4 / cplxblur=20.0 / qblur=0.5 / vbv_maxrate=50000 / vbv_bufsize=62500 / nal_hrd=none / filler=0 / ip_ratio=1.40 / aq=1:1.00
Language : English
Default : Yes
Forced : No
Audio
ID : 2
Format : AC-3
Format/Info : Audio Coding 3
Mode extension : CM (complete main)
Codec ID : A_AC3
Duration : 1h 50mn
Bit rate mode : Constant
Bit rate : 640 Kbps
Channel(s) : 6 channels
Channel positions : Front: L C R, Side: L R, LFE
Sampling rate : 48.0 KHz
Bit depth : 16 bits
Compression mode : Lossy
Stream size : 508 MiB (14%)
Title : Дубляж
Language : Russian
Default : Yes
Forced : No
Text
ID : 3
Format : UTF-8
Codec ID : S_TEXT/UTF8
Codec ID/Info : UTF-8 Plain Text
Title : Полные
Language : Russian
Default : No
Forced : No
Menu
00:00:00.000 : en:Chapter 1
00:08:21.375 : en:Chapter 2
00:16:46.422 : en:Chapter 3
00:25:22.020 : en:Chapter 4
00:29:16.254 : en:Chapter 5
00:34:09.422 : en:Chapter 6
00:45:08.455 : en:Chapter 7
00:51:00.515 : en:Chapter 8
00:59:08.336 : en:Chapter 9
01:06:22.728 : en:Chapter 10
01:12:39.229 : en:Chapter 11
01:21:58.663 : en:Chapter 12
01:24:17.093 : en:Chapter 13
01:31:11.757 : en:Chapter 14
01:35:35.563 : en:Chapter 15
01:46:04.441 : en:Chapter 16

Скриншоты

Яндекс.Метрика
Рейтинг@Mail.ru