Команда 49: Огненная лестница / Ladder 49 (Джей Расселл)[2004,Боевик, триллер, драма, BDRip 1080p] by msltel | D, A

 

Создавать темы 06-Дек-2013 16:23

Название: Команда 49: Огненная лестница
Оригинальное название: Ladder 49
Год выпуска: 2004
Жанр: Боевик, триллер, драма
Выпущено: США, Beacon Communications LLC, Beacon Pictures, Casey Silver Productions, Fantail Films Inc., Touchstone Pictures
Режиссер: Джей Расселл
В ролях: Хоакин Феникс, Джон Траволта, Джасинда Бэрретт, Роберт Патрик, Моррис Честнат, Билли Бёрк, Бальтазар Гетти, Тим Гини, Кевин Чэпмен, Джей Эрнандес, Кевин Дэниелс, Стив Мэй, Роберт Льюис, Брук Хэмлин, Спенсер Берглунд, Карен Лоррэйн Викс, Дезри Кэа, Пегги Кафферти, Мария Аллен, Лесли Лайлс, Роберт МакКэй, Ричард Пилчер, Джон Лумия, Роберт О’Нейлл, Тодд Кахун, Джесс Кинг, Реверенд Дж. Кевин Фармер, Делани Уильямс, Шарлин Уильямс, Рори Д. Годсей, Дакота Ли Холлоуэй, Кэрол Флоренс, Кайл Прю, Стэн Стовэлл, Барбара Уорд, Шон Прэтт
О фильме: Пойманному в огненную ловушку пожарному Джеку Мориссону предстоит вспомнить свою полную приключений жизнь, а его друзьям и коллегам по пожарному отряду «Лестница 49» во главе с боссом Кеннеди сделать всё возможное, чтобы спасти его. Впереди у героев испытания и пламенные вихри, но они — крепкая команда настоящих мужчин, способная всё преодолеть…
Качество: BDRip 1080p
Размер: 13.49 ГБ
Продолжительность: 01:55:03
Видео: MPEG-4 AVC, 11.5 Mбит/с, 1920x1040
Аудио 1: русский, 48 kHz, AC3, 6 ch, 384 kbps avg, [Дублированный]
Аудио 2: русский, 48 kHz, DTS, 6 ch, 1509 kbps avg, [Авторский, Сергей Визгунов]
Аудио 3: русский, 48 kHz, DTS, 6 ch, 1509 kbps avg, [Авторский, Юрий Немахов]
Аудио 4: английский, 48 kHz, DTS, 6 ch, 1509 kbps avg, [Оригинал]
Субтитры 1: русские
Субтитры 2: английские
Субтитры 3: русские (комментарий режиссёров)
Исходник: delo2006 (HDTracker)
Сравнение с исходником

MediaInfo + Лог х264

Общее
Уникальный идентификатор : 232490345436582657092323820637856880757 (0xAEE80305B33171D4854C66D370F65875)
Полное имя : E:VideoKomanda.49.2004.x264.BDRip.1080p.mkv
Формат : Matroska
Версия формата : Version 4 / Version 2
Размер файла : 13,5 Гбайт
Продолжительность : 1 ч. 55 м.
Общий поток : 16,8 Мбит/сек
Название фильма : Команда 49: Огненная лестница / Ladder 49 / 2004 / BDRip -- STarankov
Дата кодирования : UTC 2013-12-05 14:14:03
Программа кодирования : mkvmerge v6.6.0 ('The Edge Of The In Between') built on Dec 1 2013 17:55:00
Библиотека кодирования : libebml v1.3.0 + libmatroska v1.4.1
Видео
Идентификатор : 1
Формат : AVC
Формат/Информация : Advanced Video Codec
Профиль формата : [email protected]
Параметр CABAC формата : Да
Параметр ReFrames формата : 4 кадра
Идентификатор кодека : V_MPEG4/ISO/AVC
Продолжительность : 1 ч. 55 м.
Битрейт : 11,5 Мбит/сек
Ширина : 1920 пикселей
Высота : 1040 пикселей
Соотношение сторон : 1,85:1
Режим частоты кадров : Постоянный
Частота кадров : 23,976 кадра/сек
Цветовое пространство : YUV
Субдискретизация насыщенности : 4:2:0
Битовая глубина : 8 бит
Тип развёртки : Прогрессивная
Бит/(Пиксели*Кадры) : 0.241
Размер потока : 9,28 Гбайт (69%)
Библиотека кодирования : x264 core 138 r2358 9e941d1
Настройки программы : cabac=1 / ref=4 / deblock=1:-2:-2 / analyse=0x3:0x113 / me=umh / subme=10 / psy=1 / psy_rd=1.00:0.15 / mixed_ref=1 / me_range=24 / chroma_me=1 / trellis=2 / 8x8dct=1 / cqm=0 / deadzone=21,11 / fast_pskip=0 / chroma_qp_offset=-3 / threads=6 / lookahead_threads=1 / sliced_threads=0 / nr=0 / decimate=1 / interlaced=0 / bluray_compat=0 / constrained_intra=0 / bframes=8 / b_pyramid=2 / b_adapt=2 / b_bias=0 / direct=1 / weightb=1 / open_gop=0 / weightp=2 / keyint=230 / keyint_min=23 / scenecut=40 / intra_refresh=0 / rc_lookahead=40 / rc=crf / mbtree=0 / crf=18.0 / qcomp=0.60 / qpmin=0 / qpmax=69 / qpstep=4 / vbv_maxrate=50000 / vbv_bufsize=62500 / crf_max=0.0 / nal_hrd=none / ip_ratio=1.40 / pb_ratio=1.30 / aq=1:1.00
Язык : English
Default : Да
Forced : Нет
Аудио #1
Идентификатор : 2
Формат : AC-3
Формат/Информация : Audio Coding 3
Расширение режима : CM (complete main)
Параметр Endianness формата : Big
Идентификатор кодека : A_AC3
Продолжительность : 1 ч. 55 м.
Вид битрейта : Постоянный
Битрейт : 384 Кбит/сек
Каналы : 6 каналов
Расположение каналов : Front: L C R, Side: L R, LFE
Частота : 48,0 КГц
Битовая глубина : 16 бит
Метод сжатия : С потерями
Размер потока : 316 Мбайт (2%)
Заголовок : DUB
Язык : Russian
Default : Да
Forced : Нет
Аудио #2
Идентификатор : 3
Формат : DTS
Формат/Информация : Digital Theater Systems
Режим : 16
Параметр Endianness формата : Big
Идентификатор кодека : A_DTS
Продолжительность : 1 ч. 55 м.
Вид битрейта : Постоянный
Битрейт : 1509 Кбит/сек
Каналы : 6 каналов
Расположение каналов : Front: L C R, Side: L R, LFE
Частота : 48,0 КГц
Битовая глубина : 24 бит
Метод сжатия : С потерями
Размер потока : 1,21 Гбайт (9%)
Заголовок : AVO (Сергей Визгунов)
Язык : Russian
Default : Нет
Forced : Нет
Аудио #3
Идентификатор : 4
Формат : DTS
Формат/Информация : Digital Theater Systems
Режим : 16
Параметр Endianness формата : Big
Идентификатор кодека : A_DTS
Продолжительность : 1 ч. 55 м.
Вид битрейта : Постоянный
Битрейт : 1509 Кбит/сек
Каналы : 6 каналов
Расположение каналов : Front: L C R, Side: L R, LFE
Частота : 48,0 КГц
Битовая глубина : 24 бит
Метод сжатия : С потерями
Размер потока : 1,21 Гбайт (9%)
Заголовок : AVO (Юрий Немахов)
Язык : Russian
Default : Нет
Forced : Нет
Аудио #4
Идентификатор : 5
Формат : DTS
Формат/Информация : Digital Theater Systems
Режим : 16
Параметр Endianness формата : Big
Идентификатор кодека : A_DTS
Продолжительность : 1 ч. 55 м.
Вид битрейта : Постоянный
Битрейт : 1509 Кбит/сек
Каналы : 6 каналов
Расположение каналов : Front: L C R, Side: L R, LFE
Частота : 48,0 КГц
Битовая глубина : 24 бит
Метод сжатия : С потерями
Размер потока : 1,21 Гбайт (9%)
Заголовок : Original
Язык : English
Default : Нет
Forced : Нет
Текст #1
Идентификатор : 6
Формат : UTF-8
Идентификатор кодека : S_TEXT/UTF8
Идентификатор кодека/Информация : UTF-8 Plain Text
Заголовок : русский
Язык : Russian
Default : Нет
Forced : Нет
Текст #2
Идентификатор : 7
Формат : UTF-8
Идентификатор кодека : S_TEXT/UTF8
Идентификатор кодека/Информация : UTF-8 Plain Text
Заголовок : английский
Default : Нет
Forced : Нет
Текст #3
Идентификатор : 8
Формат : UTF-8
Идентификатор кодека : S_TEXT/UTF8
Идентификатор кодека/Информация : UTF-8 Plain Text
Заголовок : русский (комментарий режиссёров)
Язык : Russian
Default : Нет
Forced : Нет
---[Information] [04.12.2013 21:29:19] avs [info]: 1920x1040p 1:1 @ 24000/1001 fps (cfr)
---[Information] [04.12.2013 21:29:19] x264 [info]: using SAR=1/1
---[Information] [04.12.2013 21:29:19] x264 [info]: using cpu capabilities: MMX2 SSE2Fast SSSE3 SSE4.2
---[Information] [04.12.2013 21:29:19] x264 [info]: profile High, level 4.1
---[Information] [05.12.2013 19:41:55] x264 [info]: frame I:1069 Avg QP:14.43 size:179984
---[Information] [05.12.2013 19:41:58] x264 [info]: frame P:38029 Avg QP:15.21 size:106119
---[Information] [05.12.2013 19:41:58] x264 [info]: frame B:126426 Avg QP:17.66 size: 47614
---[Information] [05.12.2013 19:41:58] x264 [info]: consecutive B-frames: 1.8% 3.4% 6.1% 37.5% 13.1% 31.1% 1.7% 4.8% 0.5%
---[Information] [05.12.2013 19:41:58] x264 [info]: mb I I16..4: 14.7% 58.4% 27.0%
---[Information] [05.12.2013 19:41:58] x264 [info]: mb P I16..4: 4.1% 39.1% 4.1% P16..4: 24.3% 18.1% 6.7% 0.0% 0.0% skip: 3.8%
---[Information] [05.12.2013 19:41:58] x264 [info]: mb B I16..4: 0.7% 4.3% 0.4% B16..8: 37.9% 14.7% 3.1% direct:16.9% skip:21.9% L0:45.1% L1:40.2% BI:14.6%
---[Information] [05.12.2013 19:41:58] x264 [info]: 8x8 transform intra:81.0% inter:49.5%
---[Information] [05.12.2013 19:41:58] x264 [info]: coded y,uvDC,uvAC intra: 91.0% 89.6% 72.5% inter: 40.6% 43.1% 9.1%
---[Information] [05.12.2013 19:41:58] x264 [info]: i16 v,h,dc,p: 23% 10% 26% 41%
---[Information] [05.12.2013 19:41:58] x264 [info]: i8 v,h,dc,ddl,ddr,vr,hd,vl,hu: 14% 9% 16% 8% 10% 11% 9% 11% 12%
---[Information] [05.12.2013 19:41:58] x264 [info]: i4 v,h,dc,ddl,ddr,vr,hd,vl,hu: 17% 10% 11% 9% 12% 13% 10% 9% 10%
---[Information] [05.12.2013 19:41:58] x264 [info]: i8c dc,h,v,p: 47% 20% 22% 12%
---[Information] [05.12.2013 19:41:58] x264 [info]: Weighted P-Frames: Y:5.4% UV:4.1%
---[Information] [05.12.2013 19:41:58] x264 [info]: ref P L0: 52.9% 8.2% 25.6% 12.2% 1.1% 0.0%
---[Information] [05.12.2013 19:41:58] x264 [info]: ref B L0: 83.8% 12.5% 3.7%
---[Information] [05.12.2013 19:41:58] x264 [info]: ref B L1: 93.0% 7.0%
---[Information] [05.12.2013 19:41:58] x264 [info]: kb/s:11874.83
---[Information] [05.12.2013 19:41:58] encoded 165524 frames, 2.07 fps, 11874.83 kb/s
--[Information] [05.12.2013 19:42:06] Final statistics
---[Information] [05.12.2013 19:42:06] Constant Quality Mode: Quality 18 computed...
---[Information] [05.12.2013 19:42:06] Video Bitrate Obtained (approximate): 11876 kbit/s
--[Information] [05.12.2013 19:42:06] MediaInfo
---[Information] File: E:RipKomanda.49.2004.x264.BDRipKomanda.49.2004.x264.BDRip.1080p.mkv

Скриншоты

Яндекс.Метрика
Рейтинг@Mail.ru