[ Сегодня на трекере фрилич! Идет свободное скачивание без начисления Download ]

Дочь Робин Гуда: Принцесса воров / Princess of Thieves (Питер Хьюитт)[2001, Приключения, BDRip 720p] от MediaClub | P

 

Создавать темы 06-Дек-2013 15:59

Информация о фильме
Название: Дочь Робин Гуда: Принцесса воров
Оригинальное название: Princess of Thieves
Год выхода: 2001
Жанр: Приключения
Режиссер: Питер Хьюитт
В ролях: Кира Найтли, Малкольм МакДауэлл, Дель Синнотт, Дэвид Баррасс, Стюарт Уилсон, Криспин Леттс, Роджер Эштон-Гриффитс, Джонатан Хайд, Адам Райан, Брендон Грегори, Стивен Мойер, Гей Браун, Люк Де Лэйси, Питер МакКуин, Кристофер Уиттингэм, Пол Рэди, Эндрю Данфорд, Дик Уорд, Джонатан Пемброук, Ханна Крессвелл
О фильме:Пока благородный Робин Гуд верно служит британскому трону, его дочь, очаровательная юная Гвин не желает сидеть дома. В тайне от отца она научилась метко стрелять из лука и крепко сидеть в седле, и теперь эти навыки сослужат ей верную службу. После трагической смерти Ричарда Львиное Сердце коварный принц Джон бросает в тюрьму Робин Гуда и приказывает своим головорезам убить наследника престола принца Филиппа. Он намерен во что бы то ни стало завладеть короной, но его планы ловко сорвет отважная Гвин. Переодевшись юношей, она вместе с Филиппом переживет удивительные и опасные приключения, чтобы проникнуть в логово подлых врагов, вызволить из плена отца и жестоко покарать злобного принца Джона...

Страна: США
Студия: Granada Entertainment
Продолжительность: 01:27:47
Перевод: Профессиональный многоголосый + оригинал
Файл
Кодек: MPEG-4 AVC
Качество: BDRip 720p
Видео: 7500 Кбит/с, 1280x696, 23.976 кадр/с
Звук:
Аудио #1: Русский (AC3, 2 ch, 192 Кбит/с) / Профессиональный многоголосый
Аудио #2: Русский (AC3, 6 ch, 448 Кбит/с) / Профессиональный многоголосый (Карусель)
Аудио #3: Английский (AC3, 6 ch, 448 Кбит/с)
Субтитры: Русские, английские
Семпл

MediaInfo:

Общее
Уникальный идентификатор : 212187244663369665808311693017478096564 (0x9FA1C6DE6C8945CF9BD9E6426C0066B4)
Полное имя : F:3Films FРелизыDoch.Robin.Guda.2001.x264.BDRip.720p.MediaClub.mkv
Формат : Matroska
Версия формата : Version 2
Размер файла : 5,26 Гбайт
Продолжительность : 1 ч. 27 м.
Общий поток : 8584 Кбит/сек
Название фильма : -= MediaClub =- rip by Lefevr
Дата кодирования : UTC 2013-12-05 23:55:41
Программа кодирования : mkvmerge v5.4.0 ('Piper') built on Mar 10 2012 13:34:39
Библиотека кодирования : libebml v1.2.3 + libmatroska v1.3.0
Видео
Идентификатор : 1
Формат : AVC
Формат/Информация : Advanced Video Codec
Профиль формата : [email protected]
Параметр CABAC формата : Да
Параметр ReFrames формата : 8 кадров
Идентификатор кодека : V_MPEG4/ISO/AVC
Продолжительность : 1 ч. 27 м.
Битрейт : 7500 Кбит/сек
Ширина : 1280 пикселей
Высота : 696 пикселей
Соотношение сторон : 1,85:1
Режим частоты кадров : Постоянный
Частота кадров : 23,976 кадра/сек
Цветовое пространство : YUV
Субдискретизация насыщенности : 4:2:0
Битовая глубина : 8 бит
Тип развёртки : Прогрессивная
Бит/(Пиксели*Кадры) : 0.351
Размер потока : 4,49 Гбайт (85%)
Заголовок : Doch.Robin.Guda.2001.x264.BDRip.720p.MediaClub
Библиотека кодирования : x264 core 130 r2273 b3065e6
Настройки программы : cabac=1 / ref=8 / deblock=1:-2:-2 / analyse=0x3:0x133 / me=umh / subme=11 / psy=1 / psy_rd=1.00:0.15 / mixed_ref=1 / me_range=32 / chroma_me=1 / trellis=2 / 8x8dct=1 / cqm=0 / deadzone=21,11 / fast_pskip=0 / chroma_qp_offset=-3 / threads=6 / lookahead_threads=1 / sliced_threads=0 / nr=0 / decimate=0 / interlaced=0 / bluray_compat=0 / constrained_intra=0 / bframes=8 / b_pyramid=2 / b_adapt=2 / b_bias=0 / direct=3 / weightb=1 / open_gop=0 / weightp=2 / keyint=240 / keyint_min=23 / scenecut=40 / intra_refresh=0 / rc=2pass / mbtree=0 / bitrate=7500 / ratetol=1.0 / qcomp=0.60 / qpmin=0 / qpmax=69 / qpstep=4 / cplxblur=20.0 / qblur=0.5 / ip_ratio=1.40 / pb_ratio=1.30 / aq=1:1.00
Язык : English
Default : Да
Forced : Нет
Аудио #1
Идентификатор : 2
Формат : AC-3
Формат/Информация : Audio Coding 3
Расширение режима : CM (complete main)
Параметр Endianness формата : Big
Идентификатор кодека : A_AC3
Продолжительность : 1 ч. 27 м.
Вид битрейта : Постоянный
Битрейт : 192 Кбит/сек
Каналы : 2 канала
Расположение каналов : Front: L R
Частота : 48,0 КГц
Битовая глубина : 16 бит
Метод сжатия : С потерями
Размер потока : 121 Мбайт (2%)
Заголовок : TRACK_01_MVO_RUS
Язык : Russian
Default : Да
Forced : Да
Аудио #2
Идентификатор : 3
Формат : AC-3
Формат/Информация : Audio Coding 3
Расширение режима : CM (complete main)
Параметр Endianness формата : Big
Идентификатор кодека : A_AC3
Продолжительность : 1 ч. 27 м.
Вид битрейта : Постоянный
Битрейт : 448 Кбит/сек
Каналы : 6 каналов
Расположение каналов : Front: L C R, Side: L R, LFE
Частота : 48,0 КГц
Битовая глубина : 16 бит
Метод сжатия : С потерями
Размер потока : 281 Мбайт (5%)
Заголовок : TRACK_02_MVO_RUS_Karusel
Язык : Russian
Default : Нет
Forced : Нет
Аудио #3
Идентификатор : 4
Формат : AC-3
Формат/Информация : Audio Coding 3
Расширение режима : CM (complete main)
Параметр Endianness формата : Big
Идентификатор кодека : A_AC3
Продолжительность : 1 ч. 27 м.
Вид битрейта : Постоянный
Битрейт : 448 Кбит/сек
Каналы : 6 каналов
Расположение каналов : Front: L C R, Side: L R, LFE
Частота : 48,0 КГц
Битовая глубина : 16 бит
Метод сжатия : С потерями
Размер потока : 281 Мбайт (5%)
Заголовок : TRACK_03_ORIGINAL_ENG
Язык : English
Default : Нет
Forced : Нет
Текст #1
Идентификатор : 5
Формат : UTF-8
Идентификатор кодека : S_TEXT/UTF8
Идентификатор кодека/Информация : UTF-8 Plain Text
Заголовок : TEXT_01_SUB_RUS
Язык : Russian
Default : Нет
Forced : Нет
Текст #2
Идентификатор : 6
Формат : UTF-8
Идентификатор кодека : S_TEXT/UTF8
Идентификатор кодека/Информация : UTF-8 Plain Text
Заголовок : TEXT_02_SUB_ENG
Язык : English
Default : Нет
Forced : Нет
Меню
00:00:00.000 : en:00:00:00.000
00:06:59.961 : en:00:06:59.961
00:13:59.964 : en:00:13:59.964
00:20:59.967 : en:00:20:59.967
00:27:59.928 : en:00:27:59.928
00:34:59.931 : en:00:34:59.931
00:41:59.934 : en:00:41:59.934
00:48:59.895 : en:00:48:59.895
00:55:59.898 : en:00:55:59.898
01:02:59.942 : en:01:02:59.942
01:09:59.945 : en:01:09:59.945
01:16:59.906 : en:01:16:59.906
01:27:32.914 : en:01:27:32.914

x264 log:

x264 [info]: frame I:1026 Avg QP:17.07 size:154188
x264 [info]: frame P:27405 Avg QP:19.53 size: 69045
x264 [info]: frame B:97862 Avg QP:21.28 size: 29477

О релизе:

• Сохранены оригинальные чаптеры как на Blu-ray.
• За помощь в подготовке релиза спасибо Константину - Painter
• За постер спасибо Вадиму - V_ad от Media-Art-Club
• За исходник спасибо dsk71 by HDClub

Скриншоты

Релиз от:
Яндекс.Метрика
Рейтинг@Mail.ru