Лофт / The Loft (Эрик Ван Лой) [2014, Триллер, BDRip 1080p] [Лицензия]

 

Создавать темы 31-Май-2015 11:01

Лофт / The Loft -- Год выпуска : 2014
Страна : США, Бельгия
Жанр : Триллер
Продолжительность : 01:42:59
Субтитры : нет-Перевод : Дублированный [Лицензия]-В ролях :
Карл Урбан, Джеймс Марсден, Вентворт Миллер, Эрик Стоунстрит, Маттиас Шонартс, Изабель Лукас, Рэйчел Тейлор, Рона Митра, Валери Крус, Кали Роча-Режиссёр:
Эрик Ван Лой-
В центре событий – пятеро старых друзей. Все они взрослые, женатые мужчины. Чтобы разнообразить свою обыденную семейную жизнь они решаю вместе снять комфортабельный лофт, чтобы периодически изменять здесь своим женам. Их план удался, и они поочередно встречаются в лофте со своими любовницами. Однако судьба подкидывает им неприятный сюрприз. Однажды утром все пятеро друзей обнаруживают в своем «убежище» труп неизвестной молодой женщины. Поскольку следов взлома на двери не обнаружено, а ключи от помещения есть только у пятерых мужчин, то у каждого из них возникают вопросы к друг другу.-Качество : BDRip 1080p
Формат : MKV
Видео кодек : AVC
Аудио кодек : AC-3,DTS
Видео : AVC, 1920 x 800 (2.40:1), 23.976 кадр/сек, 9123 Кбит/сек (0.248 bit/pixel)
Аудио#1 : 6 канала(ов), 48,0 КГц AC-3 at 448 Кбит/сек - Русский
Аудио#2 : 6 канала(ов), 48,0 КГц DTS at 1510 Кбит/сек - Английский
-

Инфо-файл:

General
Unique ID                   : 229686579455901681696900271857089921367 (0xACCC06AFC9866A419A96E7CAFFA04157)
Complete name               : C:\Users\feedback\Desktop\L0ft.2014.D.BDRip.1080p.mkv
Format                      : Matroska
Format version              : Version 2
File size                   : 7.97 GiB
Duration                    : 1h 42mn
Overall bit rate            : 11.1 Mbps
Encoded date                : UTC 2015-05-15 00:09:17
Writing application         : mkvmerge v7.9.0 ('Birds') 64bit
Writing library             : libebml v1.3.1 + libmatroska v1.4.2
DURATION                    : 01:42:59.328000000
NUMBER_OF_FRAMES            : 193104
NUMBER_OF_BYTES             : 346042368
_STATISTICS_WRITING_APP     : mkvmerge v7.9.0 ('Birds') 64bit
_STATISTICS_WRITING_DATE_UT : 2015-05-15 00:09:17
_STATISTICS_TAGS            : BPS DURATION NUMBER_OF_FRAMES NUMBER_OF_BYTES
Video
ID                          : 1
Format                      : AVC
Format/Info                 : Advanced Video Codec
Format profile              : [email protected]
Format settings, CABAC      : Yes
Format settings, ReFrames   : 5 frames
Codec ID                    : V_MPEG4/ISO/AVC
Duration                    : 1h 42mn
Bit rate                    : 9 123 Kbps
Width                       : 1 920 pixels
Height                      : 800 pixels
Display aspect ratio        : 2.40:1
Frame rate mode             : Constant
Frame rate                  : 23.976 fps
Color space                 : YUV
Chroma subsampling          : 4:2:0
Bit depth                   : 8 bits
Scan type                   : Progressive
Bits/(Pixel*Frame)          : 0.248
Stream size                 : 6.40 GiB (80%)
Writing library             : x264 core 144 r2525 40bb568
Encoding settings           : cabac=1 / ref=5 / deblock=1:0:0 / analyse=0x3:0x133 / me=umh / subme=7 / psy=1 / psy_rd=1.00:0.00 / mixed_ref=1 / me_range=16 / chroma_me=1 / trellis=1 / 8x8dct=1 / cqm=0 / deadzone=21,11 / fast_pskip=0 / chroma_qp_offset=-2 / threads=18 / lookahead_threads=3 / sliced_threads=0 / nr=0 / decimate=1 / interlaced=0 / bluray_compat=0 / constrained_intra=0 / bframes=3 / b_pyramid=2 / b_adapt=1 / b_bias=0 / direct=1 / weightb=1 / open_gop=0 / weightp=2 / keyint=250 / keyint_min=23 / scenecut=40 / intra_refresh=0 / rc_lookahead=40 / rc=2pass / mbtree=1 / bitrate=9123 / ratetol=1.0 / qcomp=0.60 / qpmin=0 / qpmax=69 / qpstep=4 / cplxblur=20.0 / qblur=0.5 / ip_ratio=1.40 / aq=1:1.00
Language                    : English
Default                     : Yes
Forced                      : No
DURATION                    : 01:42:59.350000000
NUMBER_OF_FRAMES            : 148156
NUMBER_OF_BYTES             : 7044921428
_STATISTICS_WRITING_APP     : mkvmerge v7.9.0 ('Birds') 64bit
_STATISTICS_WRITING_DATE_UT : 2015-05-15 00:09:17
_STATISTICS_TAGS            : BPS DURATION NUMBER_OF_FRAMES NUMBER_OF_BYTES
Audio #1
ID                          : 2
Format                      : AC-3
Format/Info                 : Audio Coding 3
Mode extension              : CM (complete main)
Format settings, Endianness : Big
Codec ID                    : A_AC3
Duration                    : 1h 42mn
Bit rate mode               : Constant
Bit rate                    : 448 Kbps
Channel(s)                  : 6 channels
Channel positions           : Front: L C R, Side: L R, LFE
Sampling rate               : 48.0 KHz
Bit depth                   : 16 bits
Compression mode            : Lossy
Stream size                 : 330 MiB (4%)
Language                    : Russian
Default                     : Yes
Forced                      : No
Audio #2
ID                          : 3
Format                      : DTS
Format/Info                 : Digital Theater Systems
Mode                        : 16
Format settings, Endianness : Big
Codec ID                    : A_DTS
Duration                    : 1h 42mn
Bit rate mode               : Constant
Bit rate                    : 1 509 Kbps
Channel(s)                  : 6 channels
Channel positions           : Front: L C R, Side: L R, LFE
Sampling rate               : 48.0 KHz
Bit depth                   : 24 bits
Compression mode            : Lossy
Stream size                 : 1.09 GiB (14%)
Language                    : English
Default                     : No
Forced                      : No
Menu
00:00:00.000                : en:00:00:00.000
00:04:30.479                : en:00:04:30.479
00:10:29.087                : en:00:10:29.087
00:14:26.616                : en:00:14:26.616
00:20:08.582                : en:00:20:08.582
00:26:40.599                : en:00:26:40.599
00:32:04.548                : en:00:32:04.548
00:38:04.407                : en:00:38:04.407
00:42:38.806                : en:00:42:38.806
00:46:53.978                : en:00:46:53.978
00:50:19.600                : en:00:50:19.600
00:54:29.099                : en:00:54:29.099
01:01:50.957                : en:01:01:50.957
01:08:45.621                : en:01:08:45.621
01:13:09.093                : en:01:13:09.093
01:20:52.723                : en:01:20:52.723
01:25:55.817                : en:01:25:55.817
01:30:09.404                : en:01:30:09.404
01:35:45.782                : en:01:35:45.782
01:37:45.985                : en:01:37:45.985

Скриншоты:

Яндекс.Метрика
Рейтинг@Mail.ru