[ Сегодня на трекере фрилич! Идет свободное скачивание без начисления Download ]

Факап, или Хуже не бывает / Nicht mein Tag (Петер Торварт) [2014 г., боевик, комедия, криминал, приключения, BDRip 720p] от Leonardo

 

Создавать темы 31-Май-2015 10:56

Факап, или Хуже не бывает / Nicht mein Tag- Год выпуска: 2014
Производство: Германия
Жанр: боевик, комедия, криминал, приключения
Продолжительность: 01:50:17
Перевод:
#1: Любительский (двухголосый закадровый) ViruseProject & Jimmy J
#2: Профессиональный (полное дублирование) звук с TS-Режиссер: Петер Торварт
В ролях: Мориц Бляйбтрой, Аксель Штайн, Жасмин Герат, Анна Мария Мюэ, Неля Кипер, Бен Рюдингер, Касэм Ходжа, Беким Гури, Тобиас Нид, Максвелл Рихтер-Описание: Тиль Райнер — банковский клерк 30-ти лет. Каждый новый день его жизни похож на предыдущий. Отношения с супругой больше напоминают привычку. Но неожиданно происходит то, что позволяет выбраться ему из повседневной рутины. Тиля захватывает в заложники грабитель банка, в котором наш герой узнает заявителя по кредиту — Наппо.
Полиция разрабатывает план перехват, устанавливает блокпосты, поэтому Наппо решает спрятать заложника в багажник и исчезнуть с награбленным! Но все идет не по плану и Наппо скрывается вместе с Тиллем! После того как шок от случившегося немного проходит, Тиль забывает про какое-либо благоразумие и погружается с головой в приключения вместе со своим похитителем…-Качество: BDRip 720p
Формат: MKV
Видео кодек: MPEG-4, AVC
Аудио кодек: AC3
Видео: 1280x544 (2.35:1) at 25.000 fps, AVC at 4018 kbps avg, 0.231 bit/pixel
Аудио:
#1: Russian; AC3; 384 kbps, 6 ch, 48.0 KHz [ViruseProject & Jimmy J]
#2: Russian: AC3, 256 Kbps, 2 ch, 48.0 KHz [DUB]
Субтитры: Немецкие-Автор рипа: -=LEONARDO=-

Скриншоты:

MediaInfo:

copyText_writeLink('this.parentNode.parentNode.nextSibling.nextSibling');        General
Unique ID                   : 198910772693518811931803131534175360018 (0x95A4D2434894F100B191251ADDFBD412)
Complete name               : Nicht mein Tag.2014.720p.LEONARDO.mkv
Format                      : Matroska
Format version              : Version 4 / Version 2
File size                   : 3.66 GiB
Duration                    : 1h 50mn
Overall bit rate            : 4 748 Kbps
Movie name                  : Release by Leonardo
Encoded date                : UTC 2015-05-17 18:48:35
Writing application         : mkvmerge v7.9.0 ('Birds') 64bit
Writing library             : libebml v1.3.1 + libmatroska v1.4.2
Attachements                : cover.jpg
DURATION                    : 01:50:16.992000000
NUMBER_OF_FRAMES            : 206781
NUMBER_OF_BYTES             : 211743744
_STATISTICS_WRITING_APP     : mkvmerge v7.9.0 ('Birds') 64bit
_STATISTICS_WRITING_DATE_UT : 2015-05-17 18:48:35
_STATISTICS_TAGS            : BPS DURATION NUMBER_OF_FRAMES NUMBER_OF_BYTES
Video
ID                          : 1
Format                      : AVC
Format/Info                 : Advanced Video Codec
Format profile              : [email protected]
Format settings, CABAC      : Yes
Format settings, ReFrames   : 11 frames
Codec ID                    : V_MPEG4/ISO/AVC
Duration                    : 1h 50mn
Bit rate                    : 4 013 Kbps
Width                       : 1 280 pixels
Height                      : 544 pixels
Display aspect ratio        : 2.35:1
Frame rate mode             : Constant
Frame rate                  : 25.000 fps
Color space                 : YUV
Chroma subsampling          : 4:2:0
Bit depth                   : 8 bits
Scan type                   : Progressive
Bits/(Pixel*Frame)          : 0.231
Stream size                 : 3.09 GiB (85%)
Writing library             : x264 core 125 r2208 d9d2288
Encoding settings           : cabac=1 / ref=11 / deblock=1:-3:-3 / analyse=0x3:0x133 / me=umh / subme=11 / psy=1 / psy_rd=1.00:0.00 / mixed_ref=1 / me_range=32 / chroma_me=1 / trellis=2 / 8x8dct=1 / cqm=0 / deadzone=21,11 / fast_pskip=0 / chroma_qp_offset=-2 / threads=12 / lookahead_threads=2 / sliced_threads=0 / nr=0 / decimate=1 / interlaced=0 / bluray_compat=0 / constrained_intra=0 / bframes=16 / b_pyramid=2 / b_adapt=2 / b_bias=0 / direct=1 / weightb=1 / open_gop=0 / weightp=2 / keyint=250 / keyint_min=25 / scenecut=40 / intra_refresh=0 / rc=crf / mbtree=0 / crf=17.5 / qcomp=0.60 / qpmin=0 / qpmax=69 / qpstep=4 / ip_ratio=1.40 / pb_ratio=1.30 / aq=1:1.00
Language                    : English
Default                     : Yes
Forced                      : No
DURATION                    : 01:50:17.040000000
NUMBER_OF_FRAMES            : 165426
NUMBER_OF_BYTES             : 3395774118
_STATISTICS_WRITING_APP     : mkvmerge v7.9.0 ('Birds') 64bit
_STATISTICS_WRITING_DATE_UT : 2015-05-17 18:48:35
_STATISTICS_TAGS            : BPS DURATION NUMBER_OF_FRAMES NUMBER_OF_BYTES
Audio #1
ID                          : 2
Format                      : AC-3
Format/Info                 : Audio Coding 3
Mode extension              : CM (complete main)
Format settings, Endianness : Big
Codec ID                    : A_AC3
Duration                    : 1h 50mn
Bit rate mode               : Constant
Bit rate                    : 384 Kbps
Channel(s)                  : 6 channels
Channel positions           : Front: L C R, Side: L R, LFE
Sampling rate               : 48.0 KHz
Bit depth                   : 16 bits
Compression mode            : Lossy
Stream size                 : 303 MiB (8%)
Title                       : ViruseProject & Jimmy J
Language                    : Russian
Default                     : Yes
Forced                      : Yes
Audio #2
ID                          : 3
Format                      : AC-3
Format/Info                 : Audio Coding 3
Mode extension              : CM (complete main)
Format settings, Endianness : Big
Codec ID                    : A_AC3
Duration                    : 1h 50mn
Bit rate mode               : Constant
Bit rate                    : 256 Kbps
Channel(s)                  : 2 channels
Channel positions           : Front: L R
Sampling rate               : 48.0 KHz
Bit depth                   : 16 bits
Compression mode            : Lossy
Stream size                 : 202 MiB (5%)
Title                       : DUB
Language                    : Russian
Default                     : No
Forced                      : No
Text
ID                          : 4
Format                      : UTF-8
Codec ID                    : S_TEXT/UTF8
Codec ID/Info               : UTF-8 Plain Text
Language                    : German
Default                     : No
Forced                      : No
Яндекс.Метрика
Рейтинг@Mail.ru