Близкие враги / Enemies Closer (2013,Триллер) DVDRip-AVC | L1

 

Создавать темы 05-Дек-2013 20:39

Информация о фильме
Название: Близкие враги
Оригинальное название: Enemies Closer
Год выпуска: 2013
Жанр: Триллер
Режиссер: Питер Хайамс
В ролях: Жан-Клод Ван Дамм, Орландо Джонс, Том Эверетт Скотт, Линзи Коккер, Кристофер Ван Варенберг, Захари Бахаров, Атанас Сребрев, Мэтт Медрано, Йонас Токингтон, Христо Митцков

О фильме: Двум заклятым врагам, столкнувшимся в лесу на американо-канадской границе, приходится объединиться в борьбе против наркокурьеров, желающих любой ценой вернуть свой потерянный груз.

Выпущено: Канада, США, AfterDark Films, IM Global
Продолжительность: 01:24:50
Озвучивание: Любительское (одноголосое) [Хихикающий доктор]
Файл
Формат: MKV
Качество: DVDRip-AVC
Видео: 1985 kb/s, 720x384
Аудио: Russian: MP3, 192 kb/s (2 ch) / English: AC3, 384 kb/s (6 ch)

MI

Format : Matroska
Format version : Version 4 / Version 2
File size : 1.52 GiB
Duration : 1h 24mn
Overall bit rate : 2 562 Kbps
Encoded date : UTC 2013-12-05 17:04:22
Writing application : mkvmerge v6.1.0 ('Old Devil') built on Mar 4 2013 09:10:42
Writing library : libebml v1.3.0 + libmatroska v1.4.0
Video
ID : 1
Format : AVC
Format/Info : Advanced Video Codec
Format profile : [email protected]
Format settings, CABAC : Yes
Format settings, ReFrames : 6 frames
Codec ID : V_MPEG4/ISO/AVC
Duration : 1h 24mn
Bit rate : 1 985 Kbps
Width : 720 pixels
Height : 384 pixels
Display aspect ratio : 1.85:1
Frame rate : 23.976 fps
Color space : YUV
Chroma subsampling : 4:2:0
Bit depth : 8 bits
Scan type : Progressive
Bits/(Pixel*Frame) : 0.299
Stream size : 1.15 GiB (76%)
Writing library : x264 core 140 r2377 1ca7bb9
Encoding settings : cabac=1 / ref=7 / deblock=1:-2:-1 / analyse=0x3:0x133 / me=umh / subme=9 / psy=1 / psy_rd=1.00:0.15 / mixed_ref=1 / me_range=32 / chroma_me=1 / trellis=1 / 8x8dct=1 / cqm=0 / deadzone=21,11 / fast_pskip=0 / chroma_qp_offset=-5 / threads=6 / lookahead_threads=1 / sliced_threads=0 / nr=1 / decimate=1 / interlaced=0 / bluray_compat=0 / constrained_intra=0 / bframes=3 / b_pyramid=1 / b_adapt=1 / b_bias=0 / direct=1 / weightb=1 / open_gop=0 / weightp=1 / keyint=240 / keyint_min=23 / scenecut=40 / intra_refresh=0 / rc_lookahead=30 / rc=2pass / mbtree=1 / bitrate=1985 / ratetol=1.0 / qcomp=0.60 / qpmin=0 / qpmax=69 / qpstep=4 / cplxblur=20.0 / qblur=0.5 / vbv_maxrate=30000 / vbv_bufsize=30000 / nal_hrd=none / filler=0 / ip_ratio=1.40 / aq=1:1.00
Language : English
Default : Yes
Forced : No
Color primaries : Generic film
Audio #1
ID : 2
Format : MPEG Audio
Format version : Version 1
Format profile : Layer 3
Codec ID : A_MPEG/L3
Codec ID/Hint : MP3
Duration : 1h 24mn
Bit rate mode : Constant
Bit rate : 192 Kbps
Channel(s) : 2 channels
Sampling rate : 44.1 KHz
Compression mode : Lossy
Stream size : 117 MiB (7%)
Language : Russian
Default : Yes
Forced : No
Audio #2
ID : 3
Format : AC-3
Format/Info : Audio Coding 3
Mode extension : CM (complete main)
Format settings, Endianness : Big
Codec ID : A_AC3
Duration : 1h 24mn
Bit rate mode : Constant
Bit rate : 384 Kbps
Channel(s) : 6 channels
Channel positions : Front: L C R, Side: L R, LFE
Sampling rate : 48.0 KHz
Bit depth : 16 bits
Compression mode : Lossy
Stream size : 233 MiB (15%)
Language : English
Default : No
Forced : No

Скриншоты

Создавать темы 31-Янв-2016 13:55 (спустя 2 года 1 месяц)

Топик был перенесен из форума Зарубежные Новинки (HD*Rip/LQ, DVDRip) в форум Зарубежные Фильмы (HD*Rip/LQ, DVDRip, SATRip, VHSRip)
T_O_M
Яндекс.Метрика
Рейтинг@Mail.ru