Сексуальные хроники французской семьи / Chroniques sexuelles d'une famille d'aujourd'hui (Жан-Марк Барр, Паскаль Арнольд / Jean-Marc Barr, Pascal Arnold) [2012 г., эротика, мелодрама, комедия, DVDRip]

 

Создавать темы 05-Окт-2013 11:48

Сексуальные хроники французской семьи / Chroniques sexuelles d'une famille d'aujourd'hui
Год выпуска: 2012 г.
Страна: Франция / Canal+, Monkey Pack Films, Supersonic Productions
Жанр: эротика, мелодрама, комедия
Продолжительность: 01:16:05
Перевод: Профессиональный (многоголосый закадровый)
Оригинальная аудиодорожка: французский
Cубтитры: нет
Режиссер: Жан-Марк Барр, Паскаль Арнольд / Jean-Marc Barr, Pascal Arnold
В ролях: Матиас Меллул, Валери Маэс, Стефан Эрсоен, Лейла Денио, Натан Дювал, Ян Бриан, Ад един Ребейляр, Грегори Аннони, Летиция Файяр, Бенжамин Уо
Описание: Рутинная жизнь современной семьи претерпевает основательную встряску, когда младший сын Роман оказывается пойман в классе, мастурбирующим и одновременно снимающим себя на камеру в мобильном телефоне. Роману грозит исключение из школы… Выясняется, что его действия — это часть игры, весьма популярной у школьников. До этих пор сексуальная тематика была табуирована в его семье, но теперь она становится центром обсуждения.

Качество видео: DVDRip
Формат видео: AVI
Видео кодек: XviD
Аудио кодек: AC3
Видео: XviD, 720x384, 1788 kbps, 25.000 fps
Аудио: AC3, 384 kb/s (6 ch), 48.0 KHz Русский
Аудио 2: AC3, 384 kb/s (6 ch), 48.0 KHz Французкий

Media Info

General
Complete name : F:\Фильмы\Сексуальные хроники французской семьи\Seksualnye.hroniki.francuzskoj.semi.2012.P.DVDRip.avi
Format : AVI
Format/Info : Audio Video Interleave
File size : 1.37 GiB
Duration : 1h 16mn
Overall bit rate : 2 572 Kbps
Genre : Comedy / Romance
Writing application : VirtualDubMod 1.5.10.2 (build 2540/release)
Original source form/Name : Movie
Video #0
ID : 0
Format : MPEG-4 Visual
Format profile : Advanced [email protected]
Format settings, BVOP : Yes
Format settings, QPel : No
Format settings, GMC : No warppoints
Format settings, Matrix : Custom
Codec ID : XVID
Codec ID/Hint : XviD
Duration : 1h 16mn
Bit rate : 1 790 Kbps
Width : 720 pixels
Height : 384 pixels
Display aspect ratio : 1.875
Frame rate : 25.000 fps
Resolution : 8 bits
Colorimetry : 4:2:0
Scan type : Progressive
Bits/(Pixel*Frame) : 0.259
Stream size : 974 MiB (70%)
Writing library : XviD 1.2.1 (UTC 2008-12-04)
Audio #1
ID : 1
Format : AC-3
Format/Info : Audio Coding 3
Codec ID : 2000
Duration : 1h 16mn
Bit rate mode : Constant
Bit rate : 384 Kbps
Channel(s) : 6 channels
Channel positions : Front: L C R, Surround: L R, LFE
Sampling rate : 48.0 KHz
Video delay : 1s 600ms
Stream size : 209 MiB (15%)
Alignment : Split accross interleaves
Interleave, duration : 40 ms (1.00 video frame)
Interleave, preload duration : 500 ms
Audio #2
ID : 2
Format : AC-3
Format/Info : Audio Coding 3
Codec ID : 2000
Duration : 1h 16mn
Bit rate mode : Constant
Bit rate : 384 Kbps
Channel(s) : 6 channels
Channel positions : Front: L C R, Surround: L R, LFE
Sampling rate : 48.0 KHz
Video delay : 1s 600ms
Stream size : 209 MiB (15%)
Alignment : Split accross interleaves
Interleave, duration : 40 ms (1.00 video frame)
Interleave, preload duration : 500 ms

Скриншоты

Яндекс.Метрика
Рейтинг@Mail.ru