Из машины / Ex Machina (Алекс Гарленд / Alex Garland) [2015 г., фантастика, драма, DVDRip] VO [Алексей Матвеев aka DoctorJoker]

 

Создавать темы 14-Май-2015 21:11

Из машины / Ex Machina--«To erase the line between man and machine is to obscure the line between men and gods»-- Производство: Великобритания, DNA Films, Film4
Год выпуска: 2015 г.
Жанр: фантастика, драма
Продолжительность: 01:48:01--Мировая премьера: 21 января 2015--Перевод: Любительский (одноголосный, закадровый) [Алексей Матвеев aka DoctorJoker]--Режиссер: Алекс Гарленд / Alex Garland--В ролях: Донал Глисон, Кори Джонсон, Оскар Айзек, Алисия Викандер, Соноя Мизуно, Симара А. Темплмен, Тиффани Писани, Элина Алминас--Описание: В центре сюжета — молодой человек, которого нанимает миллиардер, сделавший состояние на высокотехнологичных разработках. Задача работника — провести неделю в удаленном местечке, тестируя женщину-робота с искусственным интеллектом.----Качество видео: DVDRip
Контейнер: AVI
Видео кодек: XviD
Аудио кодек: AC3
Видео: 720x304 (2.37:1), 23.976 fps, XviD MPEG-4 ~1640 kbps avg, 0.31 bit/pixel
Аудио: 48 kHz, AC3 Dolby Digital, 3/2 (L,C,R,l,r) + LFE ch, ~256 kbps
Cубтитры: отсутствуют

Media Info

Общее
Полное имя : E:\P17\i3.mash1HY.2015.P1.DVDRip.1.45Gb.avi
Формат : AVI
Формат/Информация : Audio Video Interleave
Размер файла : 1,44 Гбайт
Продолжительность : 1 ч. 48 м.
Общий поток : 1906 Кбит/сек
Программа кодирования : VirtualDubMod 1.5.10.3 | www.virtualdub-fr.org || (build 2550/release)
Библиотека кодирования : VirtualDubMod build 2550/release
Видео
Идентификатор : 0
Формат : MPEG-4 Visual
Профиль формата : Advanced [email protected]
Параметр BVOP формата : 2
Параметр QPel формата : Нет
Параметр GMC формата : Без точки перехода
Параметр матрицы формата : Default (MPEG)
Режим смешивания : Сжатый битовый поток
Идентификатор кодека : XVID
Идентификатор кодека/Подсказка : XviD
Продолжительность : 1 ч. 48 м.
Битрейт : 1640 Кбит/сек
Ширина : 720 пикселей
Высота : 304 пикселя
Соотношение сторон : 2,35:1
Частота кадров : 23,976 кадра/сек
Цветовое пространство : YUV
Субдискретизация насыщенности : 4:2:0
Битовая глубина : 8 бит
Тип развёртки : Прогрессивная
Метод сжатия : С потерями
Бит/(Пиксели*Кадры) : 0.313
Размер потока : 1,24 Гбайт (86%)
Библиотека кодирования : XviD 73
Аудио
Идентификатор : 1
Формат : AC-3
Формат/Информация : Audio Coding 3
Расширение режима : CM (complete main)
Параметр Endianness формата : Big
Идентификатор кодека : 2000
Продолжительность : 1 ч. 48 м.
Вид битрейта : Постоянный
Битрейт : 256 Кбит/сек
Каналы : 6 каналов
Расположение каналов : Front: L C R, Side: L R, LFE
Частота : 48,0 КГц
Битовая глубина : 16 бит
Метод сжатия : С потерями
Размер потока : 198 Мбайт (13%)
Выравнивание : Разделение по промежуткам
Продолжительность промежутка : 42 мс. (1,00 видеокадр)
Время предзагрузки промежутка : 500 мс.

Скриншоты

Трейлер
Яндекс.Метрика
Рейтинг@Mail.ru