Игра на выживание / Beyond the Reach (2014) WEB-DL [H.264/720p-LQ] [Line]

 

Создавать темы 09-Май-2015 23:56

-Игра на выживание / Beyond the Reach (2014) WEB-DL«What began as an accident has become a deadly game»- Производство: США / Furthur Films
Жанр: триллер
Режиссер: Жан-Батист Леонетти
Продюсер: Майкл Дуглас, Роберт Митас, Филлип Элвей
Актеры: Майкл Дуглас, Джереми Ирвин, Ханна Мэнгэн Лоуренс, Ронни Кокс, Патрисия Бетун, Мартин Палмер, Дэвид Гарвер
Описание:
Корпоративная акула и его бедный молодой гид сыграют в самую опасную игру во время охоты в пустыне Мохаве.

Рейтинг MPAA: R - детям до 17 лет обязательно присутствие родителей
Возраст: 18+
Дата мировой премьеры: 6 сентября 2014
Дата российской премьеры: 7 мая 2015, «Top Film Distribution»-Продолжительность: 01:31:42
Качество видео: WEB-DL
Перевод: дублированный (Line)
Субтитры: вшитые отключаемые
Язык субтитров: английский
Внимание: присутствует около 6 минут вставок звука с TS-Видео: AVC/H.264 | 3832 Кбит/с | 1280x530
Аудио 1: AC3 2.0 | 384 Кбит/с | дублированный (Line)
Аудио 2: AC3 5.1 | 384 Кбит/с | английский

MediaInfo

Общее
Уникальный идентификатор                 : 192930832651309429255863425811931744418 (0x91252074A54BCE5B9CC66816A5D448A2)
Полное имя                               : D:\Игра на выживание [WEB-DL 720p].mkv
Формат                                   : Matroska
Версия формата                           : Version 4 / Version 2
Размер файла                             : 3,01 Гбайт
Продолжительность                        : 1 ч. 31 м.
Общий поток                              : 4693 Кбит/сек
Название фильма                          : Beyond the Reach
Дата кодирования                         : UTC 2015-05-08 16:46:04
Программа кодирования                    : mkvmerge v6.1.0 ('Old Devil') built on Mar  4 2013 09:10:42
Библиотека кодирования                   : libebml v1.3.0 + libmatroska v1.4.0
Видео
Идентификатор                            : 1
Формат                                   : AVC
Формат/Информация                        : Advanced Video Codec
Профиль формата                          : [url=mailto:[email protected]][email protected][/url]
Параметр CABAC формата                   : Нет
Параметр ReFrames формата                : 2 кадра
Идентификатор кодека                     : V_MPEG4/ISO/AVC
Продолжительность                        : 1 ч. 31 м.
Битрейт                                  : 3832 Кбит/сек
Ширина                                   : 1280 пикселей
Высота                                   : 530 пикселей
Соотношение сторон                       : 2,40:1
Режим частоты кадров                     : Постоянный
Частота кадров                           : 23,976 кадра/сек
Цветовое пространство                    : YUV
Субдискретизация насыщенности            : 4:2:0
Битовая глубина                          : 8 бит
Тип развёртки                            : Прогрессивная
Бит/(Пиксели*Кадры)                      : 0.236
Размер потока                            : 2,45 Гбайт (82%)
Заголовок                                : Beyond the Reach
Язык                                     : English
Default                                  : Да
Forced                                   : Нет
colour_range                             : Limited
Основные цвета                           : BT.709
Характеристики трансфера                 : BT.709
Коэффициенты матрицы                     : BT.709
Аудио #1
Идентификатор                            : 2
Формат                                   : AC-3
Формат/Информация                        : Audio Coding 3
Расширение режима                        : CM (complete main)
Параметр Endianness формата              : Big
Идентификатор кодека                     : A_AC3
Продолжительность                        : 1 ч. 31 м.
Вид битрейта                             : Постоянный
Битрейт                                  : 384 Кбит/сек
Каналы                                   : 2 канала
Расположение каналов                     : Front: L R
Частота                                  : 48,0 КГц
Битовая глубина                          : 16 бит
Метод сжатия                             : С потерями
Размер потока                            : 252 Мбайт (8%)
Заголовок                                : DUB, Line
Язык                                     : Russian
Default                                  : Да
Forced                                   : Нет
Аудио #2
Идентификатор                            : 3
Формат                                   : AC-3
Формат/Информация                        : Audio Coding 3
Расширение режима                        : CM (complete main)
Параметр Endianness формата              : Big
Идентификатор кодека                     : A_AC3
Продолжительность                        : 1 ч. 31 м.
Вид битрейта                             : Постоянный
Битрейт                                  : 384 Кбит/сек
Каналы                                   : 6 каналов
Расположение каналов                     : Front: L C R, Side: L R, LFE
Частота                                  : 48,0 КГц
Битовая глубина                          : 16 бит
Метод сжатия                             : С потерями
Размер потока                            : 252 Мбайт (8%)
Заголовок                                : Original
Язык                                     : English
Default                                  : Нет
Forced                                   : Нет
Текст
Идентификатор                            : 4
Формат                                   : UTF-8
Идентификатор кодека                     : S_TEXT/UTF8
Идентификатор кодека/Информация          : UTF-8 Plain Text
Язык                                     : English
Default                                  : Нет
Forced                                   : Нет
Меню
00:00:00.000                             : en:Chapter 1
00:09:34.000                             : en:Chapter 2
00:21:40.000                             : en:Chapter 3
00:31:22.000                             : en:Chapter 4
00:42:01.000                             : en:Chapter 5
00:53:29.000                             : en:Chapter 6
01:05:11.000                             : en:Chapter 7
01:15:19.000                             : en:Chapter 8
01:26:28.000                             : en:Chapter 9
Скриншоты:
Яндекс.Метрика
Рейтинг@Mail.ru