Пираты Карибского моря: Сундук мертвеца / Pirates of the Caribbean: Dead Man's Chest (2006 г.) BDRip 720p | 60fps

 

Создавать темы 09-Май-2015 11:19

Пираты Карибского моря: Сундук мертвеца / Pirates of the Caribbean: Dead Man's Chest
Год выпуска: 2006 г.
Жанр: Фэнтези, Боевик, Приключения
Страна: США
Режиссер: Гор Вербински
Продолжительность: 02:30:39
Перевод: Профессиональный (дублированный)
Перевод 2: Не требуется
В ролях: Джонни Депп, Орландо Блум, Кира Найтли, Джек Девенпорт, Билл Найи, Стеллан Скарсгард, Кевин МакНэлли, Ли Аренберг, Макензи Крук, Том Холландер
Описание:
Вновь оказавшись в ирреальном мире, лихой капитан Джек Воробей неожиданно узнает, что является должником легендарного капитана «Летучего Голландца» Дэйви Джонса. Джек должен в кратчайшие сроки решить эту проблему, иначе ему грозит вечное проклятие и рабское существование после смерти. Вдобавок ко всему, срывается свадьба Уилла Тернера и Элизабет Суонн, которые вынуждены составить Джеку компанию в его злоключениях…
Семплhttp://www77.zippyshare.com/v/z7Zx4tXj/file.html
Формат видео: MKV
Качество видео: BDRip 720p | 60fps
Видео кодек: H.264
Аудио кодек: AC3
Видео: H.264, ~9564 Кбит/сек, 1280*536, 59,880 кадров/сек
Аудио: Русский, AC3, 384 Кбит/сек, 6 каналов, 48,0 КГц
Аудио 2: Английский, AC3, 640 Кбит/сек, 6 каналов, 48,0 КГц
Cубтитры: русские
Формат субтитров: softsub (SRT)

Отчёт MediaInfo

Уникальный идентификатор : 185088976547137926739548719853933713642 (0x8B3ED7195DD285FFB4E56487245858EA)
Полное имя : Пираты Карибского моря 2 Сундук мертвеца.mkv
Формат : Matroska
Версия формата : Version 4 / Version 2
Размер файла : 11,4 Гбайт
Продолжительность : 2 ч. 30 м.
Общий поток : 10,8 Мбит/сек
Дата кодирования : UTC 2014-02-09 03:31:06
Программа кодирования : mkvmerge v6.7.0 ('Back to the Ground') 64bit built on Jan 8 2014 15:10:52
Библиотека кодирования : libebml v1.3.0 + libmatroska v1.4.1
Видео
Идентификатор : 1
Формат : AVC
Формат/Информация : Advanced Video Codec
Профиль формата : [email protected]
Параметр CABAC формата : Да
Параметр ReFrames формата : 9 кадров
Идентификатор кодека : V_MPEG4/ISO/AVC
Продолжительность : 2 ч. 30 м.
Битрейт : 9564 Кбит/сек
Ширина : 1280 пикселей
Высота : 536 пикселей
Соотношение сторон : 2,40:1
Режим частоты кадров : Постоянный
Частота кадров : 59,880 кадров/сек
Частота кадров в оригинале : 59,940 кадров/сек
Цветовое пространство : YUV
Субдискретизация насыщенности : 4:2:0
Битовая глубина : 8 бит
Тип развёртки : Прогрессивная
Бит/(Пиксели*Кадры) : 0.233
Размер потока : 10,1 Гбайт (89%)
Библиотека кодирования : x264 core 130 r2273 b3065e6
Настройки программы : cabac=1 / ref=9 / deblock=1:0:0 / analyse=0x3:0 / me=umh / subme=9 / psy=1 / psy_rd=1.00:0.10 / mixed_ref=1 / me_range=24 / chroma_me=0 / trellis=1 / 8x8dct=1 / cqm=0 / deadzone=21,11 / fast_pskip=0 / chroma_qp_offset=-3 / threads=6 / lookahead_threads=1 / sliced_threads=0 / nr=0 / decimate=0 / interlaced=0 / bluray_compat=0 / constrained_intra=0 / bframes=6 / b_pyramid=2 / b_adapt=2 / b_bias=0 / direct=1 / weightb=1 / open_gop=0 / weightp=2 / keyint=250 / keyint_min=25 / scenecut=40 / intra_refresh=0 / rc=crf / mbtree=0 / crf=14.0 / qcomp=0.60 / qpmin=0 / qpmax=69 / qpstep=4 / ip_ratio=1.40 / pb_ratio=1.30 / aq=1:1.00
Язык : English
Default : Да
Forced : Нет
Аудио #1
Идентификатор : 2
Формат : AC-3
Формат/Информация : Audio Coding 3
Расширение режима : CM (complete main)
Параметр Endianness формата : Big
Идентификатор кодека : A_AC3
Продолжительность : 2 ч. 30 м.
Вид битрейта : Постоянный
Битрейт : 640 Кбит/сек
Каналы : 6 каналов
Расположение каналов : Front: L C R, Side: L R, LFE
Частота : 48,0 КГц
Битовая глубина : 16 бит
Метод сжатия : С потерями
Размер потока : 690 Мбайт (6%)
Заголовок : Original
Язык : English
Default : Нет
Forced : Нет
Аудио #2
Идентификатор : 3
Формат : AC-3
Формат/Информация : Audio Coding 3
Расширение режима : CM (complete main)
Параметр Endianness формата : Big
Идентификатор кодека : A_AC3
Продолжительность : 2 ч. 30 м.
Вид битрейта : Постоянный
Битрейт : 384 Кбит/сек
Каналы : 6 каналов
Расположение каналов : Front: L C R, Side: L R, LFE
Частота : 48,0 КГц
Битовая глубина : 16 бит
Метод сжатия : С потерями
Размер потока : 414 Мбайт (4%)
Заголовок : Dub
Язык : Russian
Default : Да
Forced : Нет
Текст #1
Идентификатор : 4
Формат : UTF-8
Идентификатор кодека : S_TEXT/UTF8
Идентификатор кодека/Информация : UTF-8 Plain Text
Заголовок : Rus full
Язык : Russian
Default : Нет
Forced : Нет
Текст #2
Идентификатор : 5
Формат : UTF-8
Идентификатор кодека : S_TEXT/UTF8
Идентификатор кодека/Информация : UTF-8 Plain Text
Заголовок : Eng full
Язык : English
Default : Нет
Forced : Нет
Меню
00:00:00.000 : en:Chapter 1
00:04:19.926 : en:Chapter 2
00:09:54.010 : en:Chapter 3
00:12:14.442 : en:Chapter 4
00:19:10.065 : en:Chapter 5
00:23:54.474 : en:Chapter 6
00:30:16.481 : en:Chapter 7
00:35:30.419 : en:Chapter 8
00:40:33.931 : en:Chapter 9
00:46:29.036 : en:Chapter 10
00:50:26.565 : en:Chapter 11
00:56:19.626 : en:Chapter 12
00:59:53.381 : en:Chapter 13
01:05:46.192 : en:Chapter 14
01:11:56.854 : en:Chapter 15
01:17:05.329 : en:Chapter 16
01:22:11.259 : en:Chapter 17
01:30:37.640 : en:Chapter 18
01:34:39.173 : en:Chapter 19
01:39:22.831 : en:Chapter 20
01:44:53.412 : en:Chapter 21
01:49:15.715 : en:Chapter 22
01:54:56.806 : en:Chapter 23
01:59:37.044 : en:Chapter 24
02:05:00.910 : en:Chapter 25
02:10:28.195 : en:Chapter 26
02:16:21.631 : en:Chapter 27
02:21:05.748 : en:Chapter 28
02:30:41.032 : en:Chapter 29

Скриншоты

Создавать темы 13-Мар-2016 05:18 (спустя 10 месяцев 3 дня)

Спасибо, весь интернет перерыл
Торрент не рабочий.
Яндекс.Метрика
Рейтинг@Mail.ru