[ Сегодня на трекере фрилич! Идет свободное скачивание без начисления Download ]

Пираты Карибского Моря: Проклятье Чёрной Жемчужины / Pirates of the Caribbean: The Curse of the Black Pearl (2003 г.) BDRip 1080p | 60fps

 

Создавать темы 09-Май-2015 11:12

Пираты Карибского Моря: Проклятье Чёрной Жемчужины / Pirates of the Caribbean: The Curse of the Black Pearl
Год выпуска: 2003 г.
Жанр: фэнтези, боевик, приключения
Страна: США
Режиссер: Гор Вербински
Продолжительность: 02:23:15
Перевод: Профессиональный (дублированный)
В ролях: Джонни Депп, Джеффри Раш, Орландо Блум, Кира Найтли, Джек Девенпорт, Джонатан Прайс, Ли Аренберг, Маккензи Крук, Дамиан О`Харе, Джиллз Нью
Описание:
Жизнь капитана Джека Воробья, полная увлекательных приключений, резко меняется, когда его заклятый враг — капитан Барбосса — похищает корабль Джека, Черную Жемчужину, а затем нападает на Порт Ройал и крадет прекрасную дочь губернатора, Элизабет Свонн. Друг детства Элизабет, Уилл Тернер, вместе с Джеком возглавляет спасательную экспедицию на самом быстром корабле Британии, в попытке вызволить девушку из плена и заодно отобрать у злодея Черную Жемчужину. Вслед за этой парочкой отправляется амбициозный коммодор Норрингтон, который к тому же числится женихом Элизабет.
Сэмпл: http://www85.zippyshare.com/v/RhOK7CNA/file.html
Автор Рипа:
Формат видео: MKV
Качество видео: BDRip 1080p | 60fps
Видео кодек: H.264
Аудио кодек: AC3
Видео: 1916x800, 10640 Кбит/сек, 59.940 кадр/сек, AVC, x264, [email protected], 2.40:1, 0.116 Бит
Аудио: AC-3, 640 Кбит/сек, 6 канала(ов), 48,0 КГц - Дублированный / Русский
Аудио 2: AC-3, 640 Кбит/сек, 6 канала(ов), 48,0 КГц - Оригинал / Английский

Отчёт MediaInfo

Уникальный идентификатор : 182995143193308644570887766131330869630 (0x89AB9524F7E60EB69D99FB46E0C1697E)
Полное имя : Piraty.Karibskogo.morja.Prokljatie.Chernoj.zhemchuzhiny.(2003).BDRip.1080p.[60fps].mkv
Формат : Matroska
Версия формата : Version 2
Размер файла : 11,9 Гбайт
Продолжительность : 2 ч. 23 м.
Общий поток : 11,9 Мбит/сек
Название фильма : Пираты Карибского моря: Проклятие Черной жемчужины.(2003).BDRip.1080p.[envy].[60fps]
Дата кодирования : UTC 2014-12-27 18:14:22
Программа кодирования : mkvmerge v5.8.0 ('No Sleep / Pillow') built on Sep 2 2012 15:37:04
Библиотека кодирования : libebml v1.2.3 + libmatroska v1.3.0
Видео
Идентификатор : 1
Формат : AVC
Формат/Информация : Advanced Video Codec
Профиль формата : [email protected]
Параметр CABAC формата : Да
Параметр ReFrames формата : 4 кадра
Идентификатор кодека : V_MPEG4/ISO/AVC
Продолжительность : 2 ч. 23 м.
Битрейт : 10,6 Мбит/сек
Ширина : 1916 пикселей
Высота : 800 пикселей
Соотношение сторон : 2,40:1
Режим частоты кадров : Постоянный
Частота кадров : 59,880 кадров/сек
Частота кадров в оригинале : 59,940 кадров/сек
Цветовое пространство : YUV
Субдискретизация насыщенности : 4:2:0
Битовая глубина : 8 бит
Тип развёртки : Прогрессивная
Бит/(Пиксели*Кадры) : 0.116
Размер потока : 10,4 Гбайт (87%)
Заголовок : Пираты Карибского моря: Проклятие Черной жемчужины.(2003).BDRip.1080p.[envy].[60fps]
Библиотека кодирования : x264 core 130 r2273 b3065e6
Настройки программы : cabac=1 / ref=4 / deblock=1:0:0 / analyse=0x3:0x133 / me=umh / subme=10 / psy=1 / psy_rd=1.00:0.00 / mixed_ref=1 / me_range=28 / chroma_me=1 / trellis=2 / 8x8dct=1 / cqm=0 / deadzone=21,11 / fast_pskip=0 / chroma_qp_offset=-2 / threads=12 / lookahead_threads=1 / sliced_threads=0 / nr=0 / decimate=1 / interlaced=0 / bluray_compat=0 / constrained_intra=0 / bframes=5 / b_pyramid=2 / b_adapt=2 / b_bias=0 / direct=3 / weightb=1 / open_gop=0 / weightp=2 / keyint=250 / keyint_min=25 / scenecut=40 / intra_refresh=0 / rc=2pass / mbtree=0 / bitrate=10640 / ratetol=1.0 / qcomp=0.60 / qpmin=0 / qpmax=69 / qpstep=4 / cplxblur=20.0 / qblur=0.5 / ip_ratio=1.40 / pb_ratio=1.30 / aq=2:0.80
Язык : English
Default : Да
Forced : Нет
Аудио #1
Идентификатор : 2
Формат : AC-3
Формат/Информация : Audio Coding 3
Расширение режима : CM (complete main)
Параметр Endianness формата : Big
Идентификатор кодека : A_AC3
Продолжительность : 2 ч. 23 м.
Вид битрейта : Постоянный
Битрейт : 640 Кбит/сек
Каналы : 6 каналов
Расположение каналов : Front: L C R, Side: L R, LFE
Частота : 48,0 КГц
Битовая глубина : 16 бит
Метод сжатия : С потерями
Размер потока : 656 Мбайт (5%)
Заголовок : Dub
Язык : Russian
Default : Да
Forced : Нет
Аудио #2
Идентификатор : 3
Формат : AC-3
Формат/Информация : Audio Coding 3
Расширение режима : CM (complete main)
Параметр Endianness формата : Big
Идентификатор кодека : A_AC3
Продолжительность : 2 ч. 23 м.
Вид битрейта : Постоянный
Битрейт : 640 Кбит/сек
Каналы : 6 каналов
Расположение каналов : Front: L C R, Side: L R, LFE
Частота : 48,0 КГц
Битовая глубина : 16 бит
Метод сжатия : С потерями
Размер потока : 656 Мбайт (5%)
Заголовок : Eng
Язык : English
Default : Нет
Forced : Нет
Текст #1
Идентификатор : 4
Формат : UTF-8
Идентификатор кодека : S_TEXT/UTF8
Идентификатор кодека/Информация : UTF-8 Plain Text
Заголовок : forced
Язык : Russian
Default : Да
Forced : Да
Текст #2
Идентификатор : 5
Формат : UTF-8
Идентификатор кодека : S_TEXT/UTF8
Идентификатор кодека/Информация : UTF-8 Plain Text
Заголовок : full
Язык : Russian
Default : Нет
Forced : Нет
Текст #3
Идентификатор : 6
Формат : UTF-8
Идентификатор кодека : S_TEXT/UTF8
Идентификатор кодека/Информация : UTF-8 Plain Text
Заголовок : full
Язык : English
Default : Нет
Forced : Нет
Меню
00:00:00.000 : :Chapter 1
00:08:51.278 : :Chapter 2
00:16:05.547 : :Chapter 3
00:27:16.342 : :Chapter 4
00:35:59.322 : :Chapter 5
00:41:02.960 : :Chapter 6
00:48:19.938 : :Chapter 7
00:54:01.277 : :Chapter 8
01:04:05.675 : :Chapter 9
01:15:56.801 : :Chapter 10
01:21:21.417 : :Chapter 11
01:35:00.152 : :Chapter 12
01:40:00.743 : :Chapter 13
01:48:15.613 : :Chapter 14
02:02:02.189 : :Chapter 15
02:13:09.647 : :Chapter 16
02:23:14.877 : :Chapter 17

Скриншоты

Яндекс.Метрика
Рейтинг@Mail.ru