[ Сегодня на трекере фрилич! Идет свободное скачивание без начисления Download ]

Пираты Карибского моря: На краю Света / Pirates of the Caribbean: At World's End (2007 г.) BDRip 720p | 60fps

 

Создавать темы 09-Май-2015 11:07

Пираты Карибского моря: На краю Света / Pirates of the Caribbean: At World's End
Год выпуска: 2007 г.
Жанр: Фэнтези, Боевик, Приключения
Страна: США
Режиссер: Гор Вербински
Продолжительность: 02:48:30
Перевод: Профессиональный (дублированный)
Перевод 2: Не требуется
В ролях: Джонни Депп, Джеффри Раш, Орландо Блум, Кира Найтли, Том Холландер, Билл Найи, Стеллан Скарсгард, Наоми Харрис, Джек Девенпорт, Чоу Юнь-Фат
Описание:
Новые приключения Джека Воробья и его друзей Уилла Тернера и Элизабет Суонн. На этот раз Уиллу и Элизабет придется объединиться с самим Капитаном Барбоссой для того, чтобы отправиться на край света и спасти своего друга — Джека. Ситуация осложняется тем, что Элизабет попадает к сингапурским пиратам…
Сэмпл: http://www85.zippyshare.com/v/9xC5yNZk/file.html
Формат видео: MKV
Качество видео: BDRip 720p | 60fps
Видео кодек: H.264
Аудио кодек: AC3
Видео: H.264, ~10300 Кбит/сек, 1280*536, 59,880 кадров/сек
Аудио: Русский, AC3, 384 Кбит/сек, 6 каналов, 48,0 КГц
Аудио 2: Английский, AC3, 640 Кбит/сек, 6 каналов, 48,0 КГц
Cубтитры: русские
Формат субтитров: softsub (SRT)

Отчёт MediaInfo

Уникальный идентификатор : 205292352942122133520127335380356328497 (0x9A71DE7607ACF089A6A5AA3FA7BA6C31)
Полное имя : Пираты Карибского моря 3 На краю света.mkv
Формат : Matroska
Версия формата : Version 4 / Version 2
Размер файла : 13,7 Гбайт
Продолжительность : 2 ч. 48 м.
Общий поток : 11,6 Мбит/сек
Дата кодирования : UTC 2014-02-09 03:37:23
Программа кодирования : mkvmerge v6.7.0 ('Back to the Ground') 64bit built on Jan 8 2014 15:10:52
Библиотека кодирования : libebml v1.3.0 + libmatroska v1.4.1
Видео
Идентификатор : 1
Формат : AVC
Формат/Информация : Advanced Video Codec
Профиль формата : [email protected]
Параметр CABAC формата : Да
Параметр ReFrames формата : 9 кадров
Идентификатор кодека : V_MPEG4/ISO/AVC
Продолжительность : 2 ч. 48 м.
Битрейт : 10,3 Мбит/сек
Ширина : 1280 пикселей
Высота : 536 пикселей
Соотношение сторон : 2,40:1
Режим частоты кадров : Постоянный
Частота кадров : 59,880 кадров/сек
Частота кадров в оригинале : 59,940 кадров/сек
Цветовое пространство : YUV
Субдискретизация насыщенности : 4:2:0
Битовая глубина : 8 бит
Тип развёртки : Прогрессивная
Бит/(Пиксели*Кадры) : 0.252
Размер потока : 12,2 Гбайт (89%)
Библиотека кодирования : x264 core 130 r2273 b3065e6
Настройки программы : cabac=1 / ref=9 / deblock=1:0:0 / analyse=0x3:0 / me=umh / subme=9 / psy=1 / psy_rd=1.00:0.10 / mixed_ref=1 / me_range=24 / chroma_me=0 / trellis=1 / 8x8dct=1 / cqm=0 / deadzone=21,11 / fast_pskip=0 / chroma_qp_offset=-3 / threads=6 / lookahead_threads=1 / sliced_threads=0 / nr=0 / decimate=0 / interlaced=0 / bluray_compat=0 / constrained_intra=0 / bframes=6 / b_pyramid=2 / b_adapt=2 / b_bias=0 / direct=1 / weightb=1 / open_gop=0 / weightp=2 / keyint=250 / keyint_min=25 / scenecut=40 / intra_refresh=0 / rc=crf / mbtree=0 / crf=14.0 / qcomp=0.60 / qpmin=0 / qpmax=69 / qpstep=4 / ip_ratio=1.40 / pb_ratio=1.30 / aq=1:1.00
Default : Да
Forced : Нет
Аудио #1
Идентификатор : 2
Формат : AC-3
Формат/Информация : Audio Coding 3
Расширение режима : CM (complete main)
Параметр Endianness формата : Big
Идентификатор кодека : A_AC3
Продолжительность : 2 ч. 48 м.
Вид битрейта : Постоянный
Битрейт : 640 Кбит/сек
Каналы : 6 каналов
Расположение каналов : Front: L C R, Side: L R, LFE
Частота : 48,0 КГц
Битовая глубина : 16 бит
Метод сжатия : С потерями
Размер потока : 771 Мбайт (6%)
Заголовок : Original
Язык : English
Default : Нет
Forced : Нет
Аудио #2
Идентификатор : 3
Формат : AC-3
Формат/Информация : Audio Coding 3
Расширение режима : CM (complete main)
Параметр Endianness формата : Big
Идентификатор кодека : A_AC3
Продолжительность : 2 ч. 48 м.
Вид битрейта : Постоянный
Битрейт : 384 Кбит/сек
Каналы : 6 каналов
Расположение каналов : Front: L C R, Side: L R, LFE
Частота : 48,0 КГц
Битовая глубина : 16 бит
Метод сжатия : С потерями
Размер потока : 463 Мбайт (3%)
Заголовок : Dub
Язык : Russian
Default : Да
Forced : Нет
Текст #1
Идентификатор : 4
Формат : UTF-8
Идентификатор кодека : S_TEXT/UTF8
Идентификатор кодека/Информация : UTF-8 Plain Text
Заголовок : Rus full
Язык : Russian
Default : Нет
Forced : Нет
Текст #2
Идентификатор : 5
Формат : ASS
Идентификатор кодека : S_TEXT/ASS
Идентификатор кодека/Информация : Advanced Sub Station Alpha
Метод сжатия : Без потерь
Заголовок : Eng full
Язык : English
Default : Нет
Forced : Нет
Меню
00:00:00.000 : en:Chapter 1
00:04:33.898 : en:Chapter 2
00:10:01.809 : en:Chapter 3
00:19:58.280 : en:Chapter 4
00:26:07.482 : en:Chapter 5
00:32:47.340 : en:Chapter 6
00:39:40.336 : en:Chapter 7
00:46:04.762 : en:Chapter 8
00:51:31.963 : en:Chapter 9
00:58:03.730 : en:Chapter 10
01:04:50.678 : en:Chapter 11
01:12:46.779 : en:Chapter 12
01:17:54.878 : en:Chapter 13
01:24:46.539 : en:Chapter 14
01:28:41.357 : en:Chapter 15
01:33:34.150 : en:Chapter 16
01:38:05.671 : en:Chapter 17
01:41:52.981 : en:Chapter 18
01:48:12.652 : en:Chapter 19
01:53:13.286 : en:Chapter 20
01:59:31.372 : en:Chapter 21
02:05:52.211 : en:Chapter 22
02:09:13.245 : en:Chapter 23
02:13:53.525 : en:Chapter 24
02:23:19.257 : en:Chapter 25
02:28:15.636 : en:Chapter 26
02:34:29.218 : en:Chapter 27
02:38:48.560 : en:Chapter 28
02:48:29.766 : en:Chapter 29

Скриншоты

Яндекс.Метрика
Рейтинг@Mail.ru