[ Сегодня на трекере фрилич! Идет свободное скачивание без начисления Download ]

Соучастник / Collateral (Майкл Манн / Michael Mann) [2004 г., Триллер, драма, криминал, BDRip-AVC] AVO (Гаврилов, Живов, Королев, Визгунов) + Sub (Rus)

 

Создавать темы 08-Май-2015 17:41

Соучастник / Collateral
«It started like any other night.»
- Год выпуска: 2004
Производство: США
Жанр: Триллер, драма, криминал
Продолжительность: 01:59:56
Перевод: Авторский (одноголосый, закадровый) Гаврилов, Живов, Королев, Визгунов
Субтитры: русские
Режиссер: Майкл Манн / Michael Mann
В ролях: Том Круз, Джейми Фокс, Питер Берг, Ричард Т. Джонс, Марк Руффало, Джейсон Стэтхэм, Ирма П. Холл, Клеа Скотт, Майкл Бент, Томас Розалес-мл., Пол Эделстайн, Джессика Феррарон, Трой Бленделл, Чик Дэниэл, Жонелль Кеннеди, Стивен Козловски, Роджер Стоунбернер, Эдди Диаз, Джои Барнс, Джон Конвертино, Джош Круз, Анджело Тиффе, Луис Монкада, Майкл-Джон Вульф, Эдди Юнгми, Брэндон Молэйл, Спайк Сильвер, Аннабель Гутман, Марк Кубр, Тони Сагастизадо, Чарли Э. Шмидт мл., Джада Пинкетт Смит
Описание: Для таксиста Макса очередной рабочий вечер открылся радостным знакомством с красоткой, а закончился настоящим кошмаром. К нему подсел странный, неразговорчивый человек, предложивший за 700 долларов доставить его по пяти разным адресам. Когда же Макс узнает, что хмурый Винсент – наемный убийца, который выполняет заказы по всему городу и становится свидетелем первого преступления, то он на свой страх и риск пытается предотвратить новые убийства и вступает с киллером в опасную игру... Ведь в списке киллера последним значится сам Макс...
Качество видео: BDRip-AVC
Контейнер: MKV
Видео кодек: H.264
Видео: 1112x464 / 2412 kbps / 23,976 fps / 2,40:1 / High Profile 4.1
Аудио#1: 48 kHz, AC3 Dolby Digital, 3/2 (L,C,R,l,r) + LFE ch, ~448 kbps avg - Гаврилов
Аудио#2: 48 kHz, AC3 Dolby Digital, 3/2 (L,C,R,l,r) + LFE ch, ~448 kbps avg - Живов
Аудио#3: 48 kHz, AC3 Dolby Digital, 2/0 (L,R) ch, ~192.00 kbps avg - Королев
Аудио#4: 48 kHz, AC3 Dolby Digital, 2/0 (L,R) ch, ~192.00 kbps avg - Визгунов
Формат субтитров: softsub (SRT)

Награды

Приз Национального совета обозревателей за режиссуру, 2 «Золотых сателлита» — за монтаж (Джим Миллер, Пол Рубелл — Jim Miller, Paul Rubell) и звук (Ли Орлофф, Эллиот Корец, Майкл Минклер, Майрон Неттинга — Lee Orloff, Elliott Koretz, Michael Minkler, Myron Nettinga).
Оскар, 2005 год
Номинации (2):
Лучшая мужская роль второго плана (Джейми Фокс)
Лучший монтаж
Золотой глобус, 2005 год
Номинации (1):
Лучшая мужская роль второго плана (Джейми Фокс)
Премия канала «MTV», 2005 год
Номинации (1):
Лучший злодей (Том Круз)
Британская академия, 2005 год
Победитель (1):
Лучшая работа оператора
Номинации (5):
Лучшая мужская роль второго плана (Джейми Фокс)
Лучший оригинальный сценарий
Лучший звук
Лучший монтаж
Премия имени Дэвида Лина за достижения в режиссуре (Майкл Манн)
Сатурн, 2005 год
Номинации (4):
Лучший режиссер (Майкл Манн)
Лучший актер (Том Круз)
Лучший сценарий
Лучший приключенческий фильм, боевик или триллер
Премия Гильдии актеров, 2005 год
Номинации (1):
Лучшая мужская роль второго плана (Джейми Фокс)
Венецианский кинофестиваль, 2004 год
Победитель (1):
Приз «Future Film Festival Digital Award»

Media Info

Формат : Matroska
Версия формата : Version 4 / Version 2
Размер файла : 3,10 Гбайт
Продолжительность : 1 ч. 59 м.
Общий поток : 3695 Кбит/сек
Название фильма : Collateral.2004.BDRip-AVC.Gavrilov.Zhivov.Korolev.Vizgunov -=anton966=-
Дата кодирования : UTC 2015-04-13 07:02:25
Программа кодирования : mkvmerge v7.8.0 ('River Man') 64bit built on Mar 27 2015 16:31:37
Библиотека кодирования : libebml v1.3.1 + libmatroska v1.4.2
DURATION : 01:50:32.130000000
NUMBER_OF_FRAMES : 1203
NUMBER_OF_BYTES : 75342
_STATISTICS_WRITING_APP : mkvmerge v7.8.0 ('River Man') 64bit built on Mar 27 2015 16:31:37
_STATISTICS_WRITING_DATE_UTC : 2015-04-13 07:02:25
_STATISTICS_TAGS : BPS DURATION NUMBER_OF_FRAMES NUMBER_OF_BYTES
Видео
Идентификатор : 1
Формат : AVC
Формат/Информация : Advanced Video Codec
Профиль формата : [email protected]
Параметр CABAC формата : Да
Параметр ReFrames формата : 9 кадров
Идентификатор кодека : V_MPEG4/ISO/AVC
Продолжительность : 1 ч. 59 м.
Битрейт : 2342 Кбит/сек
Ширина : 1112 пикселей
Высота : 464 пикселя
Соотношение сторон : 2,40:1
Режим частоты кадров : Постоянный
Частота кадров : 23,976 кадра/сек
Цветовое пространство : YUV
Субдискретизация насыщенности : 4:2:0
Битовая глубина : 8 бит
Тип развёртки : Прогрессивная
Бит/(Пиксели*Кадры) : 0.189
Размер потока : 1,96 Гбайт (63%)
Заголовок : Collateral.2004.BDRip-AVC
Библиотека кодирования : x264 core 146 r2538kMod 121396c
Настройки программы : cabac=1 / ref=9 / deblock=1:-2:-1 / analyse=0x3:0x113 / me=umh / subme=11 / psy=1 / fade_compensate=0.00 / psy_rd=1.05:0.20 / mixed_ref=1 / me_range=32 / chroma_me=1 / trellis=2 / 8x8dct=1 / cqm=0 / deadzone=21,11 / fast_pskip=1 / chroma_qp_offset=-3 / threads=12 / lookahead_threads=2 / sliced_threads=0 / nr=0 / decimate=1 / interlaced=0 / bluray_compat=0 / constrained_intra=0 / fgo=0 / bframes=9 / b_pyramid=2 / b_adapt=2 / b_bias=0 / direct=1 / weightb=1 / open_gop=0 / weightp=2 / keyint=250 / keyint_min=23 / scenecut=40 / intra_refresh=0 / rc_lookahead=50 / rc=crf / mbtree=0 / crf=19.7000 / qcomp=0.60 / qpmin=0 / qpmax=69 / qpstep=4 / vbv_maxrate=40000 / vbv_bufsize=62500 / crf_max=0.0 / nal_hrd=none / filler=0 / ip_ratio=1.40 / pb_ratio=1.30 / aq=1:1.00
Язык : English
Default : Да
Forced : Нет
DURATION : 01:59:56.196000000
NUMBER_OF_FRAMES : 172536
NUMBER_OF_BYTES : 2169834437
_STATISTICS_WRITING_APP : mkvmerge v7.8.0 ('River Man') 64bit built on Mar 27 2015 16:31:37
_STATISTICS_WRITING_DATE_UTC : 2015-04-13 07:02:25
_STATISTICS_TAGS : BPS DURATION NUMBER_OF_FRAMES NUMBER_OF_BYTES
Аудио #1
Идентификатор : 2
Формат : AC-3
Формат/Информация : Audio Coding 3
Расширение режима : CM (complete main)
Параметр Endianness формата : Big
Идентификатор кодека : A_AC3
Продолжительность : 1 ч. 59 м.
Вид битрейта : Постоянный
Битрейт : 448 Кбит/сек
Каналы : 6 каналов
Расположение каналов : Front: L C R, Side: L R, LFE
Частота : 48,0 КГц
Битовая глубина : 16 бит
Метод сжатия : С потерями
Размер потока : 384 Мбайт (12%)
Заголовок : Gavrilov
Язык : Russian
Default : Да
Forced : Нет
Аудио #2
Идентификатор : 3
Формат : AC-3
Формат/Информация : Audio Coding 3
Расширение режима : CM (complete main)
Параметр Endianness формата : Big
Идентификатор кодека : A_AC3
Продолжительность : 1 ч. 59 м.
Вид битрейта : Постоянный
Битрейт : 448 Кбит/сек
Каналы : 6 каналов
Расположение каналов : Front: L C R, Side: L R, LFE
Частота : 48,0 КГц
Битовая глубина : 16 бит
Метод сжатия : С потерями
Размер потока : 384 Мбайт (12%)
Заголовок : Zhivov
Язык : Russian
Default : Нет
Forced : Нет
Аудио #3
Идентификатор : 4
Формат : AC-3
Формат/Информация : Audio Coding 3
Профиль формата : Dolby Digital
Расширение режима : CM (complete main)
Параметр Endianness формата : Big
Идентификатор кодека : A_AC3
Продолжительность : 1 ч. 59 м.
Вид битрейта : Постоянный
Битрейт : 192 Кбит/сек
Каналы : 2 канала
Расположение каналов : Front: L R
Частота : 48,0 КГц
Битовая глубина : 16 бит
Метод сжатия : С потерями
Размер потока : 165 Мбайт (5%)
Заголовок : Korolev
Язык : Russian
Default : Нет
Forced : Нет
Аудио #4
Идентификатор : 5
Формат : AC-3
Формат/Информация : Audio Coding 3
Профиль формата : Dolby Digital
Расширение режима : CM (complete main)
Параметр Endianness формата : Big
Идентификатор кодека : A_AC3
Продолжительность : 1 ч. 59 м.
Вид битрейта : Постоянный
Битрейт : 192 Кбит/сек
Каналы : 2 канала
Расположение каналов : Front: L R
Частота : 48,0 КГц
Битовая глубина : 16 бит
Метод сжатия : С потерями
Размер потока : 165 Мбайт (5%)
Заголовок : Vizgunov
Язык : Russian
Default : Нет
Forced : Нет
Текст #1
Идентификатор : 6
Формат : UTF-8
Идентификатор кодека : S_TEXT/UTF8
Идентификатор кодека/Информация : UTF-8 Plain Text
Заголовок : Sunny-Sko
Язык : Russian
Default : Нет
Forced : Нет
Текст #2
Идентификатор : 7
Формат : UTF-8
Идентификатор кодека : S_TEXT/UTF8
Идентификатор кодека/Информация : UTF-8 Plain Text
Заголовок : Andrew Gantsevich
Язык : Russian
Default : Нет
Forced : Нет
Текст #3
Идентификатор : 8
Формат : UTF-8
Идентификатор кодека : S_TEXT/UTF8
Идентификатор кодека/Информация : UTF-8 Plain Text
Заголовок : White Snake
Язык : Russian
Default : Нет
Forced : Нет
Меню
00:00:00.000 : en:
00:13:19.339 : en:
00:17:55.074 : en:
00:24:21.710 : en:
00:27:19.429 : en:
00:29:57.128 : en:
00:33:49.652 : en:
00:37:05.723 : en:
00:39:29.033 : en:
00:47:57.666 : en:
00:54:10.038 : en:
00:56:11.826 : en:
00:59:01.120 : en:
01:12:19.001 : en:
01:16:18.698 : en:
01:18:40.090 : en:
01:25:35.130 : en:
01:34:46.597 : en:
01:45:06.675 : en:
01:53:06.738 : en:

log x.264

Лог промохан, только вот так:
DRF analysis
average DRF 17.674653
standard deviation 4.806141
max DRF 32
DRF=1 855 ( 0.496 %)
DRF=2 1906 ( 1.105 %)
DRF=3 2383 ( 1.381 %)
DRF=4 2156 ( 1.250 %)
DRF=5 1175 ( 0.681 %)
DRF=6 928 ( 0.538 %)
DRF=7 85 ( 0.049 %)
DRF=8 136 ( 0.079 %)
DRF=9 87 ( 0.050 %)
DRF=10 272 ( 0.158 %)
DRF=11 798 ( 0.463 %)
DRF=12 1669 ( 0.967 %)
DRF=13 3706 ( 2.148 %)
DRF=14 6769 ( 3.923 %) #
DRF=15 11742 ( 6.806 %) #
DRF=16 18669 ( 10.820 %) ##
DRF=17 22886 ( 13.264 %) ###
DRF=18 24497 ( 14.198 %) ###
DRF=19 16922 ( 9.808 %) ##
DRF=20 13887 ( 8.049 %) ##
DRF=21 10962 ( 6.353 %) #
DRF=22 8604 ( 4.987 %) #
DRF=23 6904 ( 4.001 %) #
DRF=24 5177 ( 3.001 %) #
DRF=25 3331 ( 1.931 %)
DRF=26 2500 ( 1.449 %)
DRF=27 1628 ( 0.944 %)
DRF=28 899 ( 0.521 %)
DRF=29 428 ( 0.248 %)
DRF=30 122 ( 0.071 %)
DRF=31 18 ( 0.010 %)
DRF=32 1 ( 0.001 %)
DRF>32 0 ( 0.000 %)
P-slices average DRF 16.010876
P-slices std. deviation 4.929623
P-slices max DRF 29
B-slices average DRF 18.149284
B-slices std. deviation 4.66699
B-slices max DRF 32
I-slices average DRF 15.212439
I-slices std. deviation 4.311679
I-slices max DRF 27

Скриншоты

Яндекс.Метрика
Рейтинг@Mail.ru