Молодая гвардия / Серии: 1-12 из 12 (Леонид Пляскин) [2015, военная приключенческая драма, WEBRip-AVC]

 

Создавать темы 07-Май-2015 19:07

--Молодая гвардия-- Год выпуска: 2015
Производство: Россия,Профит
Жанр: военная приключенческая драма
Продолжительность: 00:50:00 серия
Субтитры: нет
Режиссёр: Леонид Пляскин
В ролях: Никита Тезин, Катерина Шпица, Юрий Борисов (II), Вячеслав Чепурченко, Ирина Горбачева, Юрий Чурсин, Владислав Кузнецов, Виктор Хориняк, Полина Пушкарук, Сергей Яковлев (V), Илья Кожухарь, Карина Гондагсазян, Иван Решетняк, Алексей Вертков, Марцин Руй, Андрей Гусев, Николай Сердцев, Михаил Елисеев, Григорий Зельцер, Дмитрий Быковский-Ромашов, Сергей Яценюк, Руслан Барабанов, Анастасия Мытражик, Лариса Шахворостова, Ольга Лапшина, Евгения Дмитриева, Владимир Антоник, Ирина Яковлева, Тагир Рахимов, Роман Шмаков, Василий Миролюбов, Максим Сапрыкин (II), Сергей Карабань, Мария Троицкая, Илья Антоненко, Валерий Карпов (II), Вячеслав Евлантьев, Иван Мозговой, Максим Кошеваров, Ярослав Химченко, Сергей Куликов (II), Александр Строев (III), Светлана Улыбина, Вячеслав Ковалёв, Алексей Литвиненко (II), Андрей Лёвин, Николай Орловский, Андрей Анненский, Яак Принтс, Леонид Торкиани, Жорж Девдариани, Александр Дырин, Борис Цай, Александр Горбатов (II), Софья Озерова, Лидия Байрашевская, Виктория Даненкова
Описание: Новый взгляд на одну из самых драматичных страниц Великой Отечественной Войны. Краснодон, 1942 год. Юные подпольщики для борьбы с карателями организуют свой отряд – «Молодую гвардию». Под самым носом у фашистских оккупантов ребята совершают многочисленные диверсии. Операции становятся всё более отчаянными и рискованными. Члены организации с ловкостью проникают на оружейные склады, портят провиант и срывают добычу угля для немецкого тыла. Немцы не подозревают, что имеют дело не с партизанами, а с горсткой юношей и подростков...-- --Качество: WEBRip-AVC
Формат: MKV
Видео кодек: H.264
Аудио кодек: AC3
Видео: MPEG-4 AVC, 1024х576,25fps,1700 Кбит/сек,Bits/Pixel 0.115
Аудио: AC3, 48 kHz, ~192 Kbps, 2 канала

MI

Общее
Уникальный идентификатор : 218497619751456244971156472518175897898 (0xA4611C61B13C18608142345757C8392A)
Полное имя : F:\Молодая гвардия\04 серия.mkv
Формат : Matroska
Версия формата : Version 2
Размер файла : 685 Мбайт
Продолжительность : 50 м.
Общий поток : 1894 Кбит/сек
Дата кодирования : UTC 2015-05-04 20:51:07
Программа кодирования : mkvmerge v6.1.0 ('Old Devil') built on Mar 4 2013 09:10:42
Библиотека кодирования : libebml v1.3.0 + libmatroska v1.4.0
Видео
Идентификатор : 1
Формат : AVC
Формат/Информация : Advanced Video Codec
Профиль формата : [email protected]
Параметр CABAC формата : Да
Параметр ReFrames формата : 9 кадров
Идентификатор кодека : V_MPEG4/ISO/AVC
Продолжительность : 50 м.
Битрейт : 1700 Кбит/сек
Ширина : 1024 пикселя
Высота : 576 пикселей
Соотношение сторон : 16:9
Режим частоты кадров : Постоянный
Частота кадров : 25,000 кадров/сек
Цветовое пространство : YUV
Субдискретизация насыщенности : 4:2:0
Битовая глубина : 8 бит
Тип развёртки : Прогрессивная
Бит/(Пиксели*Кадры) : 0.115
Размер потока : 602 Мбайт (88%)
Библиотека кодирования : x264 core 130 r2273 b3065e6
Настройки программы : cabac=1 / ref=9 / deblock=1:-3:-3 / analyse=0x3:0x133 / me=umh / subme=9 / psy=1 / psy_rd=1.00:0.00 / mixed_ref=1 / me_range=16 / chroma_me=0 / trellis=1 / 8x8dct=1 / cqm=0 / deadzone=21,11 / fast_pskip=1 / chroma_qp_offset=-2 / threads=4 / lookahead_threads=4 / sliced_threads=0 / nr=0 / decimate=0 / interlaced=0 / bluray_compat=0 / constrained_intra=0 / bframes=9 / b_pyramid=2 / b_adapt=1 / b_bias=0 / direct=1 / weightb=1 / open_gop=0 / weightp=2 / keyint=240 / keyint_min=24 / scenecut=40 / intra_refresh=0 / rc_lookahead=30 / rc=2pass / mbtree=1 / bitrate=1700 / ratetol=1.0 / qcomp=0.60 / qpmin=0 / qpmax=69 / qpstep=4 / cplxblur=20.0 / qblur=0.5 / ip_ratio=1.40 / aq=1:1.20
Default : Да
Forced : Нет
Основные цвета : BT.709
Характеристики трансфера : BT.709
Коэффициенты матрицы : BT.709
colour_range : Limited
Аудио
Идентификатор : 2
Формат : AC-3
Формат/Информация : Audio Coding 3
Расширение режима : CM (complete main)
Параметр Endianness формата : Big
Идентификатор кодека : A_AC3
Продолжительность : 50 м.
Вид битрейта : Постоянный
Битрейт : 192 Кбит/сек
Каналы : 2 канала
Расположение каналов : Front: L R
Частота : 48,0 КГц
Битовая глубина : 16 бит
Метод сжатия : С потерями
Размер потока : 69,5 Мбайт (10%)
Default : Да
Forced : Нет

Скриншоты

--Добавлены 7-12 серии.Сезон окончен.--
Яндекс.Метрика
Рейтинг@Mail.ru