[ Сегодня на трекере фрилич! Идет свободное скачивание без начисления Download ]

Дом, милый ад / Home Sweet Hell (2015) BDRip [H.264/720p]

 

Создавать темы 04-Май-2015 14:10

--Дом, милый ад / Home Sweet Hell (2015) BDRip [H.264/720p]--
      Производство: США / Darko Entertainment, Donnybrook4 Productions, Passcode Entertainment
      Жанр: триллер, комедия, драма
      Режиссер: Энтони Бёрнс
      Продюсер: А.Дж. Бакли, Энтони Бёрнс, Джефф Калотта
      Актеры: Кэтрин Хейгл, Патрик Уилсон, Джеймс Белуши, Джордана Брюстер, Кевин МакКидд, Брайс Джонсон, А.Дж. Бакли, Алишия Окс, Эйден Флауэрс, Мэдисон Вульф
      Описание:
          Соблазнительная и интригующая новая сотрудница компании становится проблемой для бизнесмена, который женат на одержимой женщине, пытающейся контролировать все аспекты его жизни.
-
      Рейтинг MPAA: R - детям до 17 лет обязательно присутствие родителей
      Возраст: 18+
      Дата мировой премьеры: 13 марта 2015
      Дата выхода DVD релиза: 14 мая 2015, «CP Дистрибуция»-Продолжительность: 01:37:51
      Качество видео: BDRip
      Перевод: многоголосый закадровый, профессиональный (iTunes)
      Субтитры: вшитые отключаемые
      Язык субтитров: русский
-
        Видео: AVC/H.264 | 7960 Кбит/с | 1280x544
        Аудио 1: AC3 5.1 | 384 Кбит/с | многоголосый закадровый, профессиональный
        Аудио 2: DTS 5.1 |1509 Кбит/с| английский
-

Mediainfo:

        Код:
        Полное имя : D:\NNM-Club\Дом, милый ад BDRip [720p].mkv
        Формат : Matroska
        Версия формата : Version 4 / Version 2
        Размер файла : 6,62 Гбайт
        Продолжительность : 1 ч. 37 м.
        Общий поток : 9686 Кбит/сек
        Название фильма : Home Sweet Hell
        Дата кодирования : UTC 2015-05-04 08:41:30
        Программа кодирования : mkvmerge v6.1.0 ('Old Devil') built on Mar 4 2013 09:10:42
        Библиотека кодирования : libebml v1.3.0 + libmatroska v1.4.0
        Видео
        Идентификатор : 1
        Формат : AVC
        Формат/Информация : Advanced Video Codec
        Профиль формата : [email protected]
        Параметр CABAC формата : Да
        Параметр ReFrames формата : 9 кадров
        Идентификатор кодека : V_MPEG4/ISO/AVC
        Продолжительность : 1 ч. 37 м.
        Битрейт : 7960 Кбит/сек
        Ширина : 1280 пикселей
        Высота : 544 пикселя
        Соотношение сторон : 2,35:1
        Режим частоты кадров : Постоянный
        Частота кадров : 23,976 кадра/сек
        Цветовое пространство : YUV
        Субдискретизация насыщенности : 4:2:0
        Битовая глубина : 8 бит
        Тип развёртки : Прогрессивная
        Бит/(Пиксели*Кадры) : 0.477
        Размер потока : 5,19 Гбайт (78%)
        Заголовок : Home Sweet Hell
        Библиотека кодирования : x264 core 142 r2431 ac76440
        Настройки программы : cabac=1 / ref=9 / deblock=1:0:0 / analyse=0x3:0x133 / me=umh / subme=10 / psy=1 / psy_rd=0.00:0.00 / mixed_ref=1 / me_range=24 / chroma_me=1 / trellis=2 / 8x8dct=1 / cqm=0 / deadzone=21,11 / fast_pskip=1 / chroma_qp_offset=0 / threads=16 / lookahead_threads=2 / sliced_threads=0 / nr=0 / decimate=1 / interlaced=0 / bluray_compat=0 / constrained_intra=0 / bframes=9 / b_pyramid=2 / b_adapt=2 / b_bias=0 / direct=3 / weightb=0 / open_gop=0 / weightp=2 / keyint=240 / keyint_min=23 / scenecut=40 / intra_refresh=0 / rc_lookahead=60 / rc=abr / mbtree=1 / bitrate=7960 / ratetol=1.0 / qcomp=0.60 / qpmin=0 / qpmax=69 / qpstep=4 / vbv_maxrate=62500 / vbv_bufsize=78125 / nal_hrd=none / filler=0 / ip_ratio=1.40 / aq=1:0.00
        Язык : English
        Default : Да
        Forced : Нет
        colour_range : Limited
        Коэффициенты матрицы : BT.709
        Аудио #1
        Идентификатор : 2
        Формат : AC-3
        Формат/Информация : Audio Coding 3
        Расширение режима : CM (complete main)
        Параметр Endianness формата : Big
        Идентификатор кодека : A_AC3
        Продолжительность : 1 ч. 37 м.
        Вид битрейта : Постоянный
        Битрейт : 384 Кбит/сек
        Каналы : 6 каналов
        Расположение каналов : Front: L C R, Side: L R, LFE
        Частота : 48,0 КГц
        Битовая глубина : 16 бит
        Метод сжатия : С потерями
        Размер потока : 269 Мбайт (4%)
        Язык : Russian
        Default : Да
        Forced : Нет
        Аудио #2
        Идентификатор : 3
        Формат : DTS
        Формат/Информация : Digital Theater Systems
        Режим : 16
        Параметр Endianness формата : Big
        Идентификатор кодека : A_DTS
        Продолжительность : 1 ч. 37 м.
        Вид битрейта : Постоянный
        Битрейт : 1509 Кбит/сек
        Каналы : 6 каналов
        Расположение каналов : Front: L C R, Side: L R, LFE
        Частота : 48,0 КГц
        Битовая глубина : 16 бит
        Метод сжатия : С потерями
        Размер потока : 1,03 Гбайт (16%)
        Язык : English
        Default : Нет
        Forced : Нет
        Текст
        Идентификатор : 4
        Формат : UTF-8
        Идентификатор кодека : S_TEXT/UTF8
        Идентификатор кодека/Информация : UTF-8 Plain Text
        Язык : Russian
        Default : Нет
        Forced : Нет
        Меню
        00:00:00.000 : en:00:00:00.000
        00:06:30.098 : en:00:06:30.098
        00:11:18.678 : en:00:11:18.678
        00:14:58.064 : en:00:14:58.064
        00:21:56.232 : en:00:21:56.232
        00:26:16.575 : en:00:26:16.575
        00:32:49.593 : en:00:32:49.593
        00:37:44.762 : en:00:37:44.762
        00:42:05.481 : en:00:42:05.481
        00:48:43.295 : en:00:48:43.295
        00:54:11.999 : en:00:54:11.999
        01:00:05.685 : en:01:00:05.685
        01:07:26.501 : en:01:07:26.501
        01:15:10.798 : en:01:15:10.798
        01:22:21.770 : en:01:22:21.770
        01:29:01.211 : en:01:29:01.211
Cкриншоты
Яндекс.Метрика
Рейтинг@Mail.ru