[ Сегодня на трекере фрилич! Идет свободное скачивание без начисления Download ]

Исход: Цари и боги / Exodus: Gods and Kings (Ридли Скотт / Ridley Scott) [2014, Великобритания, США, Испания, боевик, драма, приключения, BDRip-AVC] Dub + Original + Sub (Rus, Eng)

 

Создавать темы 04-Май-2015 08:41

Исход: Цари и боги / Exodus: Gods and Kings
«Он бросил вызов империи и изменил мир»
- Год выпуска: 2014
Страна: Великобритания, США, Испания
Жанр: Боевик, драма, приключения-Продолжительность: 2:30:20
Перевод: Профессиональный (полное дублирование)
Оригинальная аудиодорожка: Английская
Cубтитры: Русские, английские {*.srt}
Навигация по главам: Присутствует-Режиссер: Ридли Скотт / Ridley Scott
В ролях: Кристиан Бэйл, Джоэл Эдгертон, Джон Туртурро, Аарон ПолБен Мендельсон, Мария Вальверде, Сигурни Уивер, Бен Кингсли, Хиам Аббасс, Исаак Эндрюс и др.-Описание: Ветхозаветная история о великом пророке Моисее и освобождении еврейского народа из египетского плена. Моисей появился на свет в те времена, когда фараон приказал убивать всех новорожденных мальчиков еврейского происхождения. Чтобы спасти его, мать положила малыша в корзину из тростника и отправила вниз по Нилу.
Ребенка нашла дочь фараона, которая усыновила его и растила рядом с Рамсесом — будущим фараоном. Много лет спустя, став мужчиной, Моисей бежит из Египта, а затем возвращается туда по велению Господа, чтобы избавить свой народ от оков рабства…-Мировая премьера: 3 декабря, 2014 г. | Премьера в России: 1 января, 2015 г.
Бюджет: $140 000 000
Сборы в США: $65 014 513 | Сборы в Мире: + $202 267 423 = $267 281 936 | Сборы в России: $17 497 162
Ограничение по возрасту: 12+
-Качество видео: BDRip-AVC
Исходник: BDRemux 1080p / HDClub
Формат видео: MKV
Видео: 1152x480 (2.40:1), 23.976 fps, x264 ~3228 kbps avg, 0.244 bit/pixel
Аудио#1: 48 kHz, AC3 Dolby Digital, 3/2 (L,C,R,l,r) + LFE ch, ~448 kbps | Dub (Blu-ray)
Аудио#2: 48 kHz, AC3 Dolby Digital, 3/2 (L,C,R,l,r) + LFE ch, ~448 kbps | Original Eng

Интересные факты

  • Фильм снят за 74 дня.
  • Джоэл Эдгертон узнал о том, что получил роль Рамзеса из поздравительных писем фанатов, которые следили за кастингом онлайн.
  • Оскар Айзек и Хавьер Бардем отклонили роль Рамзеса.
  • Моисей по колено заходит в море, чтобы достать со дна свой меч, и соответственно его одежда намокает. Когда он выходит, с одежды еще стекает вода, через одну смену кадров Моисей снова стоит полностью сухой.

MediaInfo:

Код:[color=black]General
Unique ID                   : 225837359492878648609867349111057318873 (0xA9E6B17D79F5AE15ADB453F654B683D9)
Complete name               : C:\Encode\EXODUS_GODS_AND_KINGS_REMUX_HDCLUB\Ishod.Cari_i_bogi.2014.BDRip-tRuAVC.mkv
Format                      : Matroska
Format version              : Version 2
File size                   : 4.33 GiB
Duration                    : 2h 30mn
Overall bit rate            : 4 126 Kbps
Movie name                  : Exodus: Gods and Kings (2014) - BDRip by Juvelir
Encoded date                : UTC 2015-04-02 00:55:16
Writing application         : mkvmerge v3.4.0 ('Rapunzel') сборка от May 15 2010 09:38:20
Writing library             : libebml v0.8.0 + libmatroska v0.9.0
Attachements                : mp4.encoding.log
Video
ID                          : 1
Format                      : AVC
Format/Info                 : Advanced Video Codec
Format profile              : [email protected]
Format settings, CABAC      : Yes
Format settings, ReFrames   : 14 frames
Codec ID                    : V_MPEG4/ISO/AVC
Duration                    : 2h 30mn
Bit rate                    : 3 148 Kbps
Width                       : 1 152 pixels
Height                      : 480 pixels
Display aspect ratio        : 2.40:1
Frame rate mode             : Constant
Frame rate                  : 23.976 fps
Color space                 : YUV[/thumb]
Chroma subsampling          : 4:2:0
Bit depth                   : 8 bits
Scan type                   : Progressive
Bits/(Pixel*Frame)          : 0.237
Stream size                 : 3.31 GiB (76%)
Writing library             : x264 core 146 r2538kMod 121396c
Encoding settings           : cabac=1 / ref=14 / deblock=1:-2:-2 / analyse=0x3:0x133 / me=umh / subme=11 / psy=1 / fade_compensate=0.00 / psy_rd=0.95:0.05 / mixed_ref=1 / me_range=32 / chroma_me=1 / trellis=2 / 8x8dct=1 / cqm=0 / deadzone=21,11 / fast_pskip=0 / chroma_qp_offset=-3 / threads=6 / lookahead_threads=1 / sliced_threads=0 / nr=0 / decimate=1 / interlaced=0 / bluray_compat=0 / constrained_intra=0 / fgo=0 / bframes=12 / b_pyramid=2 / b_adapt=2 / b_bias=0 / direct=3 / weightb=1 / open_gop=0 / weightp=2 / keyint=240 / keyint_min=23 / scenecut=40 / intra_refresh=0 / rc_lookahead=60 / rc=crf / mbtree=0 / crf=17.5000 / qcomp=0.65 / qpmin=0 / qpmax=69 / qpstep=4 / vbv_maxrate=20000 / vbv_bufsize=25000 / crf_max=0.0 / nal_hrd=none / filler=0 / ip_ratio=1.30 / pb_ratio=1.20 / aq=2:1.10
Language                    : English
Default                     : Yes
Forced                      : Yes
Color primaries             : BT.709
Transfer characteristics    : BT.709
Matrix coefficients         : BT.709
Color range                 : Limited
Audio #1
ID                          : 2
Format                      : AC-3
Format/Info                 : Audio Coding 3
Mode extension              : CM (complete main)
Format settings, Endianness : Big
Codec ID                    : A_AC3
Duration                    : 2h 30mn
Bit rate mode               : Constant
Bit rate                    : 448 Kbps
Channel(s)                  : 6 channels
Channel positions           : Front: L C R, Side: L R, LFE
Sampling rate               : 48.0 KHz
Bit depth                   : 16 bits
Compression mode            : Lossy
Stream size                 : 482 MiB (11%)
Title                       : Dub
Language                    : Russian
Default                     : Yes
Forced                      : No
Audio #2
ID                          : 3
Format                      : AC-3
Format/Info                 : Audio Coding 3
Mode extension              : CM (complete main)
Format settings, Endianness : Big
Codec ID                    : A_AC3
Duration                    : 2h 30mn
Bit rate mode               : Constant
Bit rate                    : 448 Kbps
Channel(s)                  : 6 channels
Channel positions           : Front: L C R, Side: L R, LFE
Sampling rate               : 48.0 KHz
Bit depth                   : 16 bits
Compression mode            : Lossy
Stream size                 : 482 MiB (11%)
Title                       : Original
Language                    : English
Default                     : No
Forced                      : No
Text #1
ID                          : 4
Format                      : UTF-8
Codec ID                    : S_TEXT/UTF8
Codec ID/Info               : UTF-8 Plain Text
Title                       : Forced
Language                    : Russian
Default                     : Yes
Forced                      : No
Text #2
ID                          : 5
Format                      : UTF-8
Codec ID                    : S_TEXT/UTF8
Codec ID/Info               : UTF-8 Plain Text
Title                       : Full
Language                    : Russian
Default                     : No
Forced                      : No
Text #3
ID                          : 6
Format                      : UTF-8
Codec ID                    : S_TEXT/UTF8
Codec ID/Info               : UTF-8 Plain Text
Title                       : Commentary
Language                    : Russian
Default                     : No
Forced                      : No
Text #4
ID                          : 7
Format                      : UTF-8
Codec ID                    : S_TEXT/UTF8
Codec ID/Info               : UTF-8 Plain Text
Language                    : English
Default                     : No
Forced                      : No
Text #5
ID                          : 8
Format                      : UTF-8
Codec ID                    : S_TEXT/UTF8
Codec ID/Info               : UTF-8 Plain Text
Title                       : SDH
Language                    : English
Default                     : No
Forced                      : No
Menu
00:00:00.000                : :Chapter 01
00:03:55.402                : :Chapter 02
00:06:51.995                : :Chapter 03
00:11:47.707                : :Chapter 04
00:14:29.452                : :Chapter 05
00:18:37.658                : :Chapter 06
00:22:15.834                : :Chapter 07
00:26:51.151                : :Chapter 08
00:30:31.288                : :Chapter 09
00:36:41.366                : :Chapter 10
00:40:48.321                : :Chapter 11
00:44:49.937                : :Chapter 12
00:48:47.800                : :Chapter 13
00:51:16.448                : :Chapter 14
00:54:22.217                : :Chapter 15
00:57:32.658                : :Chapter 16
01:00:31.169                : :Chapter 17
01:04:41.544                : :Chapter 18
01:06:49.047                : :Chapter 19
01:11:01.883                : :Chapter 20
01:16:53.692                : :Chapter 21
01:21:18.040                : :Chapter 22
01:24:30.357                : :Chapter 23
01:28:08.533                : :Chapter 24
01:30:54.157                : :Chapter 25
01:34:14.566                : :Chapter 26
01:37:20.543                : :Chapter 27
01:39:20.204                : :Chapter 28
01:42:40.321                : :Chapter 29
01:46:50.070                : :Chapter 30
01:49:02.661                : :Chapter 31
01:52:18.315                : :Chapter 32
01:57:29.876                : :Chapter 33
02:00:23.842                : :Chapter 34
02:05:41.325                : :Chapter 35
02:07:31.269                : :Chapter 36
02:13:38.469                : :Chapter 37
02:16:21.882                : :Chapter 38
02:19:39.997                : :Chapter 39
02:23:19.800                : :Chapter 40[/color]
x264 logКод:[color=black]x264 [info]: frame I:2025  Avg QP:15.38  size: 88556  PSNR Mean Y:47.60 U:51.05 V:51.97 Avg:48.50 Global:47.70
x264 [info]: frame P:45347 Avg QP:17.20  size: 31141  PSNR Mean Y:45.94 U:50.08 V:50.91 Avg:46.94 Global:45.89
x264 [info]: frame B:168897 Avg QP:19.16  size: 12130  PSNR Mean Y:45.43 U:49.81 V:50.76 Avg:46.47 Global:45.40
x264 [info]: consecutive B-frames:  1.7%  1.8%  7.1% 25.1% 20.1% 27.7%  6.5%  4.4%  2.6%  1.2%  0.8%  0.7%  0.5%
x264 [info]: mb I  I16..4:  6.4% 71.6% 22.0%
x264 [info]: mb P  I16..4:  0.5% 12.5%  2.0%  P16..4: 28.1% 32.2% 14.8%  3.5%  0.5%    skip: 5.8%
x264 [info]: mb B  I16..4:  0.1%  2.1%  0.3%  B16..8: 31.8% 22.3%  4.7%  direct: 6.1%  skip:32.6%  L0:41.8% L1:42.2% BI:15.9%
x264 [info]: 8x8 transform intra:81.7% inter:52.5%
x264 [info]: direct mvs  spatial:100.0% temporal:0.0%
x264 [info]: coded y,uvDC,uvAC intra: 93.7% 82.6% 59.4% inter: 25.0% 19.5% 4.7%
x264 [info]: i16 v,h,dc,p: 14% 12% 10% 64%
x264 [info]: i8 v,h,dc,ddl,ddr,vr,hd,vl,hu:  8% 10%  8%  9% 13% 12% 13% 12% 15%
x264 [info]: i4 v,h,dc,ddl,ddr,vr,hd,vl,hu:  8%  8%  4%  9% 16% 14% 15% 11% 15%
x264 [info]: i8c dc,h,v,p: 41% 28% 17% 14%
x264 [info]: Weighted P-Frames: Y:8.5% UV:5.6%
x264 [info]: ref P L0: 47.2% 10.4% 16.3%  6.6%  4.8%  3.6%  2.9%  1.7%  1.4%  1.2%  1.1%  0.9%  0.8%  0.8%  0.1%  0.0%
x264 [info]: ref B L0: 72.0% 11.7%  5.7%  2.9%  2.0%  1.6%  1.2%  0.8%  0.6%  0.5%  0.5%  0.3%  0.1%
x264 [info]: ref B L1: 92.0%  8.0%
x264 [info]: SSIM Mean Y:0.9849591 (18.227db)
x264 [info]: PSNR Mean Y:45.559 U:49.877 V:50.806 Avg:46.588 Global:45.513 kb/s:3228.45[/color]
FAQ по просмотру MKV/h.264/AAC

Скриншоты:

Яндекс.Метрика
Рейтинг@Mail.ru