Стрингер / Nightcrawler (Дэн Гилрой / Dan Gilroy) [2014, США, триллер, драма, криминал, BDRip-AVC] 2x VO (Есарев, Матвеев) + DVO (Пиратская студия) + Original + Sub (Rus, Eng)

 

Создавать темы 04-Май-2015 08:38

Стрингер / Nightcrawler
«Ночью город сияет ярче»
- Год выпуска: 2014
Страна: США
Жанр: Триллер, драма, криминал-Продолжительность: 1:57:34
Перевод №1: Одноголосый закадровый [Д. Есарев]
Перевод №2: Одноголосый закадровый [А. Матвеев aka. Doctor Joker]
Перевод №3: Любительский (двухголосый закадровый) [Пиратская студия] {отдельно}
Оригинальная аудиодорожка: Английская
Cубтитры: Русские, английские {*.srt}
Навигация по главам: Присутствует-Режиссер: Дэн Гилрой / Dan Gilroy
В ролях: Джейк Джилленхол, Рене Руссо, Риз Ахмед, Билл Пэкстон, Майкл Пападжон, Марко Родригес, Джеймс Хуанг, Кент Шокнек, Пэт Харви, Шэрон Тэй и др.-Описание: Луи Блум пытается найти работу. После того как он видит, как любительская съемочная группа снимает автомобильную аварию, он меняет ворованный велосипед на камеру и снимает последствия угона автомобиля, чтобы продать местной телевизионной компании. Директор новостей Нина покупает запись и убеждает его продолжить работу. Вскоре становится ясно, что ради по-настоящему стоящего материала Луи не остановится ни перед чем…-Мировая премьера: 5 сентября, 2014 г.
Бюджет: $8 500 000
Сборы в США: $32 381 217 | Сборы в Мире: + $6 316 000 = $38 697 217
Ограничение по возрасту: 16+
-Качество видео: BDRip-AVC
Исходник: Nightcrawler 2014 1080p NOR Blu-ray AVC DTS-HD MA 5.1-ESiR
*за одноголоски спасибо Переулку Переводмана и HDTracker, ну и конечно же самим авторам и всем причастным
Формат видео: MKV
Видео: 1152x480 (2.40:1), 23.976 fps, x264 ~4351 kbps avg, 0.328 bit/pixel
Аудио#1: 48 kHz, AC3 Dolby Digital, 3/2 (L,C,R,l,r) + LFE ch, ~448 kbps | Есарев
Аудио#2: 48 kHz, AC3 Dolby Digital, 3/2 (L,C,R,l,r) + LFE ch, ~448 kbps | Матвеев
Аудио#3: 48 kHz, AC3 Dolby Digital, 3/2 (L,C,R,l,r) + LFE ch, ~448 kbps | Original Eng
Аудио#4: 48 kHz, AC3 Dolby Digital, 2/0 (L,R) ch, ~192.00 kbps | DVO {отдельно}

MediaInfoКод:

Info:

General
Unique ID                   : 198651577656387199081093639945916602720 (0x9572E6F5FA43B58A92D0BDC609295960)
Complete name               : C:\Encode\Nightcrawler 2014 1080p NOR Blu-ray AVC DTS-HD MA 5.1-ESiR\Stringer.2014.BDRip-tRuAVC\Stringer.2014.BDRip-tRuAVC.mkv
Format                      : Matroska
Format version              : Version 2
File size                   : 4.68 GiB
Duration                    : 1h 57mn
Overall bit rate            : 5 698 Kbps
Movie name                  : Nightcrawler (2014) - BDRip by Juvelir
Encoded date                : UTC 2015-03-28 21:27:39
Writing application         : mkvmerge v3.4.0 ('Rapunzel') сборка от May 15 2010 09:38:20
Writing library             : libebml v0.8.0 + libmatroska v0.9.0
Attachements                : mp4.encoding.log
Video
ID                          : 1
Format                      : AVC
Format/Info                 : Advanced Video Codec
Format profile              : [email protected]
Format settings, CABAC      : Yes
Format settings, ReFrames   : 15 frames
Codec ID                    : V_MPEG4/ISO/AVC
Duration                    : 1h 57mn
Bit rate                    : 4 241 Kbps
Width                       : 1 152 pixels
Height                      : 480 pixels
Display aspect ratio        : 2.40:1
Frame rate mode             : Constant
Frame rate                  : 23.976 fps
Color space                 : YUV
Chroma subsampling          : 4:2:0
Bit depth                   : 8 bits
Scan type                   : Progressive
Bits/(Pixel*Frame)          : 0.320
Stream size                 : 3.48 GiB (74%)
Writing library             : x264 core 146 r2538kMod 121396c
Encoding settings           : cabac=1 / ref=15 / deblock=1:-3:-3 / analyse=0x3:0x133 / me=umh / subme=11 / psy=1 / fade_compensate=0.00 / psy_rd=1.00:0.10 / mixed_ref=1 / me_range=32 / chroma_me=1 / trellis=2 / 8x8dct=1 / cqm=0 / deadzone=21,11 / fast_pskip=0 / chroma_qp_offset=-3 / threads=6 / lookahead_threads=1 / sliced_threads=0 / nr=0 / decimate=1 / interlaced=0 / bluray_compat=0 / constrained_intra=0 / fgo=0 / bframes=16 / b_pyramid=2 / b_adapt=2 / b_bias=0 / direct=3 / weightb=1 / open_gop=0 / weightp=2 / keyint=240 / keyint_min=23 / scenecut=40 / intra_refresh=0 / rc_lookahead=60 / rc=crf / mbtree=0 / crf=18.2000 / qcomp=0.65 / qpmin=0 / qpmax=69 / qpstep=4 / vbv_maxrate=50000 / vbv_bufsize=62500 / crf_max=0.0 / nal_hrd=none / filler=0 / ip_ratio=1.25 / pb_ratio=1.20 / aq=2:0.80
Language                    : English
Default                     : Yes
Forced                      : Yes
Color primaries             : BT.709
Transfer characteristics    : BT.709
Matrix coefficients         : BT.709
Color range                 : Limited
Audio #1
ID                          : 2
Format                      : AC-3
Format/Info                 : Audio Coding 3
Mode extension              : CM (complete main)
Format settings, Endianness : Big
Codec ID                    : A_AC3
Duration                    : 1h 57mn
Bit rate mode               : Constant
Bit rate                    : 448 Kbps
Channel(s)                  : 6 channels
Channel positions           : Front: L C R, Side: L R, LFE
Sampling rate               : 48.0 KHz
Bit depth                   : 16 bits
Compression mode            : Lossy
Stream size                 : 377 MiB (8%)
Title                       : VO (Д. Есарев)
Language                    : Russian
Default                     : Yes
Forced                      : No
Audio #2
ID                          : 3
Format                      : AC-3
Format/Info                 : Audio Coding 3
Mode extension              : CM (complete main)
Format settings, Endianness : Big
Codec ID                    : A_AC3
Duration                    : 1h 57mn
Bit rate mode               : Constant
Bit rate                    : 448 Kbps
Channel(s)                  : 6 channels
Channel positions           : Front: L C R, Side: L R, LFE
Sampling rate               : 48.0 KHz
Bit depth                   : 16 bits
Compression mode            : Lossy
Stream size                 : 377 MiB (8%)
Title                       : VO (А. Матвеев)
Language                    : Russian
Default                     : No
Forced                      : No
Audio #3
ID                          : 4
Format                      : AC-3
Format/Info                 : Audio Coding 3
Mode extension              : CM (complete main)
Format settings, Endianness : Big
Codec ID                    : A_AC3
Duration                    : 1h 57mn
Bit rate mode               : Constant
Bit rate                    : 448 Kbps
Channel(s)                  : 6 channels
Channel positions           : Front: L C R, Side: L R, LFE
Sampling rate               : 48.0 KHz
Bit depth                   : 16 bits
Compression mode            : Lossy
Stream size                 : 377 MiB (8%)
Title                       : Original
Language                    : English
Default                     : No
Forced                      : No
Text #1
ID                          : 5
Format                      : UTF-8
Codec ID                    : S_TEXT/UTF8
Codec ID/Info               : UTF-8 Plain Text
Title                       : А. Матвеев
Language                    : Russian
Default                     : No
Forced                      : No
Text #2
ID                          : 6
Format                      : UTF-8
Codec ID                    : S_TEXT/UTF8
Codec ID/Info               : UTF-8 Plain Text
Title                       : Full
Language                    : English
Default                     : No
Forced                      : No
Text #3
ID                          : 7
Format                      : UTF-8
Codec ID                    : S_TEXT/UTF8
Codec ID/Info               : UTF-8 Plain Text
Title                       : SDH
Language                    : English
Default                     : No
Forced                      : No
Menu
00:00:00.000                : :
00:09:00.164                : :
00:15:51.825                : :
00:23:25.278                : :
00:30:43.800                : :
00:37:55.898                : :
00:46:31.038                : :
00:52:52.252                : :
01:00:29.584                : :
01:07:02.727                : :
01:17:59.383                : :
01:21:36.349                : :
01:30:00.269                : :
01:36:02.298                : :
01:44:40.607                : :
01:53:20.084                : :[/color]
Код:[color=darkgreen]General
Complete name               : C:\Encode\Nightcrawler 2014 1080p NOR Blu-ray AVC DTS-HD MA 5.1-ESiR\Stringer.2014.BDRip-tRuAVC\Stringer.2014.BDRip-tRuAVC.DVO.ac3
Format                      : AC-3
Format/Info                 : Audio Coding 3
File size                   : 161 MiB
Duration                    : 1h 57mn
Overall bit rate mode       : Constant
Overall bit rate            : 192 Kbps
Audio
Format                      : AC-3
Format/Info                 : Audio Coding 3
Mode extension              : CM (complete main)
Format settings, Endianness : Big
Duration                    : 1h 57mn
Bit rate mode               : Constant
Bit rate                    : 192 Kbps
Channel(s)                  : 2 channels
Channel positions           : Front: L R
Sampling rate               : 48.0 KHz
Bit depth                   : 16 bits
Compression mode            : Lossy
Stream size                 : 161 MiB (100%)[/color]
x264 logКод:[color=black]x264 [info]: frame I:1246  Avg QP:16.62  size: 78047  PSNR Mean Y:46.87 U:49.04 V:49.48 Avg:47.52 Global:47.13
x264 [info]: frame P:30959 Avg QP:17.87  size: 37447  PSNR Mean Y:45.58 U:48.07 V:48.65 Avg:46.30 Global:45.86
x264 [info]: frame B:136935 Avg QP:19.45  size: 18845  PSNR Mean Y:44.72 U:47.43 V:48.13 Avg:45.49 Global:45.03
x264 [info]: consecutive B-frames:  1.3%  1.1%  5.1% 11.2% 15.0% 40.3%  9.4%  5.0%  2.9%  2.1%  1.8%  0.8%  1.6%  1.6%  0.4%  0.2%  0.2%
x264 [info]: mb I  I16..4: 13.9% 69.2% 16.9%
x264 [info]: mb P  I16..4:  1.0% 11.9%  1.3%  P16..4: 29.9% 36.5% 13.5%  1.8%  0.1%    skip: 4.0%
x264 [info]: mb B  I16..4:  0.1%  3.5%  0.1%  B16..8: 35.9% 20.5%  4.8%  direct: 7.1%  skip:28.1%  L0:46.4% L1:41.9% BI:11.7%
x264 [info]: 8x8 transform intra:87.5% inter:54.7%
x264 [info]: direct mvs  spatial:100.0% temporal:0.0%
x264 [info]: coded y,uvDC,uvAC intra: 96.1% 95.6% 90.9% inter: 31.8% 33.7% 16.9%
x264 [info]: i16 v,h,dc,p: 10% 10% 27% 54%
x264 [info]: i8 v,h,dc,ddl,ddr,vr,hd,vl,hu:  8%  8% 16% 10% 13% 12% 12% 11% 12%
x264 [info]: i4 v,h,dc,ddl,ddr,vr,hd,vl,hu:  8%  9%  6% 10% 15% 13% 13% 11% 13%
x264 [info]: i8c dc,h,v,p: 62% 12%  9% 18%
x264 [info]: Weighted P-Frames: Y:4.2% UV:2.9%
x264 [info]: ref P L0: 39.4%  6.5% 18.2%  7.5%  6.4%  4.7%  4.3%  2.2%  2.2%  1.7%  1.6%  1.4%  1.3%  1.2%  1.2%  0.1%
x264 [info]: ref B L0: 58.9% 14.5%  8.1%  4.5%  3.3%  2.8%  2.2%  1.3%  1.1%  1.0%  0.8%  0.8%  0.4%  0.2%
x264 [info]: ref B L1: 89.1% 10.9%
x264 [info]: SSIM Mean Y:0.9770213 (16.387db)
x264 [info]: PSNR Mean Y:44.894 U:47.561 V:48.233 Avg:45.657 Global:45.183 kb/s:4351.35[/color]
FAQ по просмотру MKV/h.264/AAC
[list]

Скриншоты:

Яндекс.Метрика
Рейтинг@Mail.ru