Битва за Севастополь (Сергей Мокрицкий) [2015 г., военный, драма, мелодрама, боевик, WEB-DL, 720p] (iTunes)

 

Создавать темы 03-Май-2015 15:16

- -Битва за Севастополь- Производство: Россия, Украина, Новые люди
Год выпуска: 2015 г.
Жанр: военный, драма, мелодрама, боевик
Продолжительность: 01:57:56
Мировая премьера: 2 апреля 2015
Российская премьера: 2 апреля 2015, «Двадцатый Век Фокс СНГ»
Дата выхода DVD: 12 мая 2015, «CD Land», «Lizard Cinema Trade»
Дата выхода Blu-Ray: 12 мая 2015, «Lizard Cinema Trade»-Режиссер: Сергей Мокрицкий
В ролях: Юлия Пересильд, Евгений Цыганов, Олег Васильков, Никита Тарасов, Джоан Блэкэм, Полина Пахомова, Владимир Лилицкий, Анатолий Кот, Нателла Абелева-Таганова, Валерий Гришко, Сергей Барковский, Виталий Линецкий, Сергей Пускепалис, Геннадий Ченцов, Светлана Осадченко, Алла Сергийко, Станислав Боклан, Дмитрий Лаленков, Станислав Лесной, Сергей Сипливый-Описание: Любовь под нескончаемым огнем противника, дружба с Элеонорой Рузвельт, выступление на конференции, повлиявшее на исход Второй мировой войны, желание жить и страх потерять любимого человека — справится ли со всем этим хрупкая женщина?
Это реальная история Людмилы Павличенко — легендарной женщины-снайпера. Солдаты шли в бой с ее именем на устах, а враги устроили на нее охоту. На поле битвы она видела смерть и страдания, но самым серьезным испытанием для нее стала любовь, которую у нее могла забрать война…-Качество видео: WEB-DL
Контейнер: MKV
Стандарт разрешения: 720p
Видео кодек: MPEG4 AVC
Аудио кодек: AC3
Видео: [email protected] (2.40:1), 25 fps, 3 796 Kbps, 0.296 bit/pix
Аудио: Russian: 48 kHz, AC3, 3/2 (L,C,R,l,r) + LFE ch, ~384.00 kbps avg
Cубтитры: отсутствуют-

Media Info

General
Unique ID : 249612569790963477664175606387073398374 (0xBBC9A1DC28508A65AF1B52B6F04CB666)
Complete name : F:\Фильмы\B1tva.3a.C3vact0p0L.2015.O.WEB-DL.720p.mkv
Format : Matroska
Format version : Version 4 / Version 2
File size : 3.51 GiB
Duration : 1h 57mn
Overall bit rate : 4 265 Kbps
Encoded date : UTC 2015-05-01 18:11:47
Writing application : mkvmerge v6.9.1 ('Blue Panther') 64bit built on Apr 18 2014 18:23:38
Writing library : libebml v1.3.0 + libmatroska v1.4.1
Video
ID : 1
Format : AVC
Format/Info : Advanced Video Codec
Format profile : [email protected]
Format settings, CABAC : No
Format settings, ReFrames : 2 frames
Codec ID : V_MPEG4/ISO/AVC
Duration : 1h 57mn
Bit rate : 3 796 Kbps
Width : 960 pixels
Height : 534 pixels
Display aspect ratio : 2.40:1
Frame rate mode : Constant
Frame rate : 25.000 fps
Color space : YUV
Chroma subsampling : 4:2:0
Bit depth : 8 bits
Scan type : Progressive
Bits/(Pixel*Frame) : 0.296
Stream size : 3.13 GiB (89%)
Language : English
Default : Yes
Forced : No
Color range : Limited
Color primaries : BT.709
Transfer characteristics : BT.709
Matrix coefficients : BT.709
Audio
ID : 2
Format : AC-3
Format/Info : Audio Coding 3
Mode extension : CM (complete main)
Format settings, Endianness : Big
Codec ID : A_AC3
Duration : 1h 57mn
Bit rate mode : Constant
Bit rate : 384 Kbps
Channel(s) : 6 channels
Channel positions : Front: L C R, Side: L R, LFE
Sampling rate : 48.0 KHz
Compression mode : Lossy
Stream size : 324 MiB (9%)
Language : Russian
Default : Yes
Forced : No
Menu
00:00:00.000 : en:1
00:07:37.000 : en:2
00:16:32.000 : en:3
00:21:52.000 : en:4
00:27:23.000 : en:5
00:34:39.000 : en:6
00:41:50.000 : en:7
00:49:32.000 : en:8
00:56:32.000 : en:9
01:04:04.000 : en:10
01:12:04.000 : en:11
01:20:02.000 : en:12
01:30:27.000 : en:13
01:39:11.000 : en:14
01:46:22.000 : en:15
01:54:34.000 : en:16
-

Скриншоты:

Яндекс.Метрика
Рейтинг@Mail.ru