[ Сегодня на трекере фрилич! Идет свободное скачивание без начисления Download ]

Становление легенды / Rise of the Legend (Сянь-ян Чоу / Hsien-yang Chou) [2014 г., Боевик, драма, биография, BDRip, 1080p, OverUnder / Вертикальная стереопара] DVO [Green Tea] + Original (Eng)

 

Создавать темы 02-Май-2015 07:36

-Становление легенды / Rise of the Legend-- Производство: Гонконг, Китай(EDKO Films Ltd., Irresistible Alpha Ltd., Universal Pictures International, VfxNova Digital Productions Ltd., BDI Films Inc.)
Год выпуска: 2014 г.
Жанр: Боевик, драма, биография
Продолжительность: 02:11:28
Перевод: Любительский двухголосый закадровый - Green Tea (Дмитрий Познанский и Ольга Гринтиева; перевод - Алексей Хорошавин)
Режиссер: Сянь-ян Чоу / Hsien-yang Chou-В ролях: Саммо Кам-Бо Хунг, Эдди Пэн, Цзин Божань, Цзинь Чжан, Чо-Лам Вонг, Куин Жунжи, Байрон Манн, Тони Люн Ка Фай, Анджела Бейби, Луодин Ван-Описание: Этот фильм рассказывает о самом начале пути Вон Фэйхуна. Его, молодого и смелого бойца, замечает главарь одной из двух крупнейших банд, контролирующих власть в провинции ГуанДун. Босс предлагает юноше вступить в его банду, однако, он не знает, что этим лишь помогает Вон Фэйхуну осуществить свой план. Много лет назад членами этой банды был убит отец мастера, и он поклялся во что бы то ни стало отомстить.-Качество видео: BDRip
Контейнер: MKV
Формат 3D: OverUnder / Вертикальная стереопара
Порядок ракурсов: левый ракурс первый
Стандарт разрешения: 1080p
Видео кодек: H.264
Аудио кодек: AC3
Видео: AVC / [email protected] / 23,976 fps / 1920х1600 / 26,1 Мбит/сек
Аудио: Русский / AC3 / 48 KHz / 5.1 ch / 640 Кбит/сек(VO - Green Tea) [редактирование Ash61]
Cубтитры: отсутствуют-Дополнительная информация по релизу: Перевод: Алексей Хорошавин
Работа со звуком: Ольга Гринтиева, Ash61
Центральный канал получен чередованием (не наложением) выделенных голосов (с правого канала исходной русской дороги) с звуками канала из Cantonese.-ВНИМАНИЕ ! На встроенных ТВ-плеерах работать не будет!!!
ТВ Samsung в названии которого есть надпись Ultra HD , и LG Ultra HD 800 серии,Xiaomi Mi TV 2 воспроизводят полные стереопары встроенными плеерами
Железные плееры на которых воспроизводятся полные стереопары:Popcorn C-200 , Dune HD Smart D1 , Dune HD DUO , Dune HD Smart H1 , Dune HD Smart B1 , Dune HD Max , Dune HD TV-303D , Dune HD Base 3D, Philips HMP7001, Aura HD

Media Info

Общее
Уникальный идентификатор : 183123665876553126198967953764161685415 (0x89C455CD4AD32FC0A762A8A1E2F407A7)
Полное имя : F:\видео\Rise of the Legend.Rip by SeRoGa00.mkv
Формат : Matroska
Версия формата : Version 2
Размер файла : 25,0 Гбайт
Продолжительность : 2 ч. 11 м.
Общий поток : 27,2 Мбит/сек
Дата кодирования : UTC 2015-05-01 08:06:57
Программа кодирования : mkvmerge v3.4.0 ('Rapunzel') сборка от May 15 2010 09:38:20
Библиотека кодирования : libebml v0.8.0 + libmatroska v0.9.0
Видео
Идентификатор : 1
Формат : AVC
Формат/Информация : Advanced Video Codec
Профиль формата : [email protected]
Параметр CABAC формата : Да
Параметр ReFrames формата : 4 кадра
Идентификатор кодека : V_MPEG4/ISO/AVC
Продолжительность : 2 ч. 11 м.
Битрейт : 26,1 Мбит/сек
Ширина : 1920 пикселей
Высота : 1600 пикселей
Соотношение сторон : 1,200
Частота кадров : 23,976 кадра/сек
Цветовое пространство : YUV
Субдискретизация насыщенности : 4:2:0
Битовая глубина : 8 бит
Тип развёртки : Прогрессивная
Бит/(Пиксели*Кадры) : 0.354
Размер потока : 23,9 Гбайт (96%)
Заголовок : Rip by SeRoGa00
Библиотека кодирования : x264 core 142 r2479 dd79a61
Настройки программы : cabac=1 / ref=4 / deblock=1:-3:-3 / analyse=0x3:0x113 / me=umh / subme=9 / psy=1 / psy_rd=1.00:0.15 / mixed_ref=1 / me_range=24 / chroma_me=1 / trellis=2 / 8x8dct=1 / cqm=0 / deadzone=21,11 / fast_pskip=1 / chroma_qp_offset=-3 / threads=9 / lookahead_threads=1 / sliced_threads=0 / nr=0 / decimate=1 / interlaced=0 / bluray_compat=0 / constrained_intra=0 / bframes=8 / b_pyramid=2 / b_adapt=2 / b_bias=0 / direct=3 / weightb=1 / open_gop=0 / weightp=2 / keyint=250 / keyint_min=23 / scenecut=40 / intra_refresh=0 / rc_lookahead=60 / rc=crf / mbtree=1 / crf=18.0 / qcomp=0.60 / qpmin=10 / qpmax=69 / qpstep=4 / vbv_maxrate=30000 / vbv_bufsize=30000 / crf_max=0.0 / nal_hrd=none / filler=0 / ip_ratio=1.40 / aq=1:1.00
Язык : English
Default : Нет
Forced : Нет
Аудио
Идентификатор : 2
Формат : AC-3
Формат/Информация : Audio Coding 3
Расширение режима : CM (complete main)
Параметр Endianness формата : Big
Идентификатор кодека : A_AC3
Продолжительность : 2 ч. 11 м.
Вид битрейта : Постоянный
Битрейт : 640 Кбит/сек
Каналы : 6 каналов
Расположение каналов : Front: L C R, Side: L R, LFE
Частота : 48,0 КГц
Битовая глубина : 16 бит
Метод сжатия : С потерями
Размер потока : 602 Мбайт (2%)
Язык : Russian
Default : Да
Forced : Нет

Скриншоты

Яндекс.Метрика
Рейтинг@Mail.ru