[ Сегодня на трекере фрилич! Идет свободное скачивание без начисления Download ]

Американская Одиссея / American Odyssey / Сезон: 1 / Серии: 1-4 (13) (Джэми Пэйн, Питер Хортон) [2015, драма, триллер, WEB-DL 720p] MVO (NewStudio) + Sub (Rus)

 

Создавать темы 01-Май-2015 11:02

Американская Одиссея / American Odyssey--- Год выпуска: 2015
Страна: США | NBC
Жанр: драма, триллер
Продолжительность: ~00:53:00
Перевод: многоголосое профессиональное закадровое озвучание NewStudio
Субтитры: русские-Режиссёры: Джэми Пэйн, Питер Хортон и др.
В ролях: ДжонДжош Ромаро, Раджив Пахуджа, Брендан Иган, Джейн Ходишелл, Адевале Акинойе-Агбаже, Шерман Огастас, Джейсон Бабински и другие.
и др.
Описание: Бедствующая женщина-солдат, разочарованный корпоративный юрист и презираемый политический деятель оказываются вовлечены в международный заговор.-Качество: WEB-DL 720p
Формат: MKV
Видео кодек: H.264
Аудио кодек: AC3
Видео: 1280x720 (16:9), 23.976 fps, 3854 kbps, 0.174 bit/pixel
Аудио 1: 48 kHz, 6 ch, 384 kbps - Russian
Аудио 2: 48 kHz, 6 ch, 384 kbps - English
Субтитры 1: ASS - Russian-Релиз:

Перевод: Юлия Мейер.
Озвучание: NewStudioGroup-Все раздачи сериала | Сэмпл | TVRage-

Список серий

01. Gone Elvis / Пропавшая без вести.
02. Oscar Mike / Оскар Майк.
03. Drop King.
04. Tango Uniform.---1x05 03/May/2015 Beat Feet

Скриншоты

MI

Общее:Формат : MatroskaВерсия формата : Version 4 / Version 2Размер файла : 1,74 ГбайтПродолжительность : 52 м.Общий поток : 4716 Кбит/секДата кодирования : UTC 2015-04-09 00:06:40Программа кодирования : mkvmerge v7.4.0 ('Circles') 64bitБиблиотека кодирования : libebml v1.3.0 + libmatroska v1.4.1_STATISTICS_WRITING_APP : mkvmerge v7.4.0 ('Circles') 64bit_STATISTICS_WRITING_DATE_UTC : 2015-04-09 00:06:40_STATISTICS_TAGS : BPS DURATION NUMBER_OF_FRAMES NUMBER_OF_BYTESDURATION : 00:51:26.180000000NUMBER_OF_FRAMES : 2NUMBER_OF_BYTES : 170
Видео:Формат : AVCФормат/Информация : Advanced Video CodecПрофиль формата : [email protected] CABAC формата : НетПараметр ReFrames формата : 2 кадраИдентификатор кодека : V_MPEG4/ISO/AVCПродолжительность : 52 м.Битрейт : 3854 Кбит/секШирина : 1280 пикселейВысота : 720 пикселейСоотношение сторон : 16:9Режим частоты кадров : ПостоянныйЧастота кадров : 23,976 кадра/секЦветовое пространство : YUVСубдискретизация насыщенности : 4:2:0Битовая глубина : 8 битТип развёртки : ПрогрессивнаяБит/(Пиксели*Кадры) : 0.174Размер потока : 1,42 Гбайт (82%)Язык : EnglishDefault : ДаForced : НетОсновные цвета : BT.709Характеристики трансфера : BT.709Коэффициенты матрицы : BT.709colour_range : Limited
Аудио #1:Формат : AC-3Формат/Информация : Audio Coding 3Расширение режима : CM (complete main)Параметр Endianness формата : BigИдентификатор кодека : A_AC3Продолжительность : 52 м.Вид битрейта : ПостоянныйБитрейт : 384 Кбит/секКаналы : 6 каналовРасположение каналов : Front: L C R, Side: L R, LFEЧастота : 48,0 КГцБитовая глубина : 16 битМетод сжатия : С потерямиРазмер потока : 145 Мбайт (8%)Заголовок : NewStudio.TVЯзык : RussianDefault : ДаForced : Нет
Аудио #2:Формат : AC-3Формат/Информация : Audio Coding 3Расширение режима : CM (complete main)Параметр Endianness формата : BigИдентификатор кодека : A_AC3Продолжительность : 52 м.Вид битрейта : ПостоянныйБитрейт : 384 Кбит/секКаналы : 6 каналовРасположение каналов : Front: L C R, Side: L R, LFEЧастота : 48,0 КГцБитовая глубина : 16 битМетод сжатия : С потерямиРазмер потока : 145 Мбайт (8%)Язык : EnglishDefault : НетForced : Нет
Текст:Формат : ASSИдентификатор кодека : S_TEXT/ASSИдентификатор кодека/Информация : Advanced Sub Station AlphaМетод сжатия : Без потерьЯзык : RussianDefault : ДаForced : Нет

Внимание! Раздача ведётся путём добавления новых серий

Внимание! Раздача ведётся путём добавления новых серий; при каждом добавлении создаётся новый торрент. Чтобы начать докачку новой серии, пользователям необходимо сделать следующее:
(1) остановить скачивание,
(2) удалить старый торрент у себя из клиента (старые серии удалять не надо),
(3) скачать новый торрент и запустить его у себя в клиенте вместо старого, при этом указать клиенту путь в старую папку куда и должно происходить скачивание новых серий.
Ваш клиент при этом должен произвести хеширование (проверку) старой папки (если не производит сам - помогите ему сделать это), и будет докачивать только те серии которых у вас ещё нет. Старые серии при этом не удаляются, а продолжают раздаваться!
Eсли вы уже удалили старые серии, то предотвратить повторную закачку старых серий можно, отжав галочку в соответствующих местах при запуске нового торрента. По возможности, желательно не удалять старые серии как можно дольше чтобы релизёр не столько продолжал раздавать старые серии, а смог сконцентрироваться на новых.
Яндекс.Метрика
Рейтинг@Mail.ru