Трейсеры / Tracers (2015) HDRip

 

Создавать темы 29-Апр-2015 23:44

--Трейсеры / Tracers (2015) HDRip--
    • Производство: США
    • Жанр: Боевик
    • Режиссер: Даниэль Бенмаур
    • Продюсер: Марти Бауэн, Вик Годфри, Д. Скотт Лампкин
    • Актеры: Тейлор Лотнер, Мари Авгеропулос, Рафи Гаврон, Адам Рэйнер, Сэм Медина, Доа Моа, Лучиано Акуна мл., Даг Драклер, Эндрю Элвис Миллер, Эдвард М. Келахэн
    • Описание фильма:
      Фильм расскажет историю парня по имени Кэм — велокурьера, находящегося в долгу перед некоей преступной группировкой. В один из дней он сбивает на своем велосипеде сексуальную незнакомку, которая соблазняет его и увлекает в мир паркура.
- -
    • Дата мировой премьеры: 15 января 2015
    • Дата российской премьеры: 30 июля 2015
    • Релиз от: ExKinoRay
    • Продолжительность: 01:34:05
    • Качество видео: HDRip (AVC)
    • Перевод: Любительский двухголосый (Студия Пиратского Дубляжа)
    • Язык субтитров: Английский
    • Вид субтитров: Вшитые (отключаемые)
    • Видеокодек: MPEG-4 AVC
    • Битрейт видео: ~1945 Кбит/с
    • Размер кадра: 1024x426
    • Аудио:
      1. AC3, 6 ch, 384 Кбит/с - русский
      2. AC3, 6 ch, 448 Кбит/с - английский
-

MediaInfo:

Общее
Уникальный идентификатор : 240337702636686769748914941836564014356 (0xB4CF5B9A9249FA0ABC5576AADB5AA514)
Полное имя : C:\NNM\Трейсеры\Trejsery 2015 HDRip AVC.mkv
Формат : Matroska
Версия формата : Version 4 / Version 2
Размер файла : 1,82 Гбайт
Продолжительность : 1 ч. 34 м.
Общий поток : 2773 Кбит/сек
Название фильма : Tracery 2015 from ExKinoRay
Дата кодирования : UTC 2015-04-29 00:46:47
Программа кодирования : mkvmerge v6.6.0 ('The Edge Of The In Between') built on Dec 1 2013 17:55:00
Библиотека кодирования : libebml v1.3.0 + libmatroska v1.4.1
Видео
Идентификатор : 1
Формат : AVC
Формат/Информация : Advanced Video Codec
Профиль формата : [email protected]
Параметр CABAC формата : Да
Параметр ReFrames формата : 10 кадров
Идентификатор кодека : V_MPEG4/ISO/AVC
Продолжительность : 1 ч. 34 м.
Битрейт : 1945 Кбит/сек
Ширина : 1024 пикселя
Высота : 426 пикселей
Соотношение сторон : 2,40:1
Частота кадров : 23,976 кадра/сек
Цветовое пространство : YUV
Субдискретизация насыщенности : 4:2:0
Битовая глубина : 8 бит
Тип развёртки : Прогрессивная
Бит/(Пиксели*Кадры) : 0.186
Размер потока : 1,24 Гбайт (68%)
Заголовок : Enigma
Библиотека кодирования : x264 core 133 r2334 a3ac64b
Настройки программы : cabac=1 / ref=10 / deblock=1:-3:-3 / analyse=0x3:0x113 / me=umh / subme=10 / psy=1 / psy_rd=1.05:0.15 / mixed_ref=1 / me_range=32 / chroma_me=1 / trellis=2 / 8x8dct=1 / cqm=0 / deadzone=21,11 / fast_pskip=0 / chroma_qp_offset=-3 / threads=12 / lookahead_threads=2 / sliced_threads=0 / nr=0 / decimate=0 / interlaced=0 / bluray_compat=0 / constrained_intra=0 / bframes=8 / b_pyramid=2 / b_adapt=2 / b_bias=0 / direct=3 / weightb=1 / open_gop=0 / weightp=2 / keyint=240 / keyint_min=23 / scenecut=40 / intra_refresh=0 / rc=2pass / mbtree=0 / bitrate=1945 / ratetol=1.0 / qcomp=0.65 / qpmin=0 / qpmax=51 / qpstep=4 / cplxblur=20.0 / qblur=0.5 / ip_ratio=1.40 / pb_ratio=1.30 / aq=1:1.00
Язык : English
Default : Да
Forced : Нет
Основные цвета : BT.709-5, BT.1361, IEC 61966-2-4, SMPTE RP177
Характеристики трансфера : BT.709-5, BT.1361
Коэффициенты матрицы : BT.709-5, BT.1361, IEC 61966-2-4 709, SMPTE RP177
Аудио #1
Идентификатор : 2
Формат : AC-3
Формат/Информация : Audio Coding 3
Расширение режима : CM (complete main)
Идентификатор кодека : A_AC3
Продолжительность : 1 ч. 34 м.
Вид битрейта : Постоянный
Битрейт : 384 Кбит/сек
Каналы : 6 каналов
Расположение каналов : Front: L C R, Side: L R, LFE
Частота : 48,0 КГц
Битовая глубина : 16 бит
Метод сжатия : С потерями
Размер потока : 258 Мбайт (14%)
Язык : Russian
Default : Нет
Forced : Нет
Аудио #2
Идентификатор : 3
Формат : AC-3
Формат/Информация : Audio Coding 3
Расширение режима : CM (complete main)
Идентификатор кодека : A_AC3
Продолжительность : 1 ч. 34 м.
Вид битрейта : Постоянный
Битрейт : 448 Кбит/сек
Каналы : 6 каналов
Расположение каналов : Front: L C R, Side: L R, LFE
Частота : 48,0 КГц
Битовая глубина : 16 бит
Метод сжатия : С потерями
Размер потока : 302 Мбайт (16%)
Язык : English
Default : Нет
Forced : Нет
Текст #1
Идентификатор : 4
Формат : UTF-8
Идентификатор кодека : S_TEXT/UTF8
Идентификатор кодека/Информация : UTF-8 Plain Text
Язык : English
Default : Нет
Forced : Нет
Текст #2
Идентификатор : 5
Формат : UTF-8
Идентификатор кодека : S_TEXT/UTF8
Идентификатор кодека/Информация : UTF-8 Plain Text
Заголовок : SDH
Язык : English
Default : Нет
Forced : Нет
Меню
00:00:00.000 : en:00:00:00.000
00:06:28.513 : en:00:06:28.513
00:12:08.603 : en:00:12:08.603
00:19:43.182 : en:00:19:43.182
00:27:00.786 : en:00:27:00.786
00:34:38.118 : en:00:34:38.118
00:41:03.711 : en:00:41:03.711
00:48:28.072 : en:00:48:28.072
00:54:58.504 : en:00:54:58.504
00:58:33.844 : en:00:58:33.844
01:03:11.329 : en:01:03:11.329
01:10:36.941 : en:01:10:36.941
01:16:47.895 : en:01:16:47.895
01:20:06.552 : en:01:20:06.552
01:24:38.323 : en:01:24:38.323
01:28:27.219 : en:01:28:27.219
Скриншоты:
Яндекс.Метрика
Рейтинг@Mail.ru