[ Сегодня на трекере фрилич! Идет свободное скачивание без начисления Download ]

Внутренняя дорога / The Road Within (Грен Уэллс / Gren Wells) [2014 г., драма, комедия, WEB-DLRip] VO (datynet) + Original (Eng)

 

Создавать темы 29-Апр-2015 19:30

-Внутренняя дорога / The Road Within- Производство: США / Amasia Entertainment, Coup d'Etat Films, Roberi Media, Troika Pictures
Год выпуска: 2014 г.
Жанр: драма, комедия
Продолжительность: 01:41:35
Мировая премьера: 18 июня 2014-Перевод: Любительский (одноголосный, закадровый) [datynet]

Оригинальный аудиопоток: английский-Режиссер: Грен Уэллс / Gren Wells
В ролях: Зои Кравиц, Роберт Патрик, Дев Патель, Роберт Шиэн, Кира Седжвик, Мэтт Риди, Али Хиллис, Купер Рот, Эрик Мэзени, Росс Галло-Описание: Сюжет рассказывает о Винсенте — молодом человеке с синдромом Туретта — множественными моторными тиками, периодически проявляющими на лице. У Винсента умерла мать, и он остался на попечении у своего отца, занимающегося политикой. Он переезжает к отцу, который как раз все свое время посвящает политической кампании. В новом доме Винсент знакомится с девушкой-анорексичкой и соседом по комнате. Вместе они решают отправиться в путешествие к океану, дабы отвезти туда прах покойной мамы Винсента.-Качество видео: WEB-DLRip
Контейнер: AVI
Видео кодек: XviD
Аудио кодек: AC3
Видео: 720x400 (1.80:1), 23.976 fps, XviD build 73 ~1655 kbps avg, 0.24 bit/pixel
Аудио: Russian: 44.1 kHz, AC3 Dolby Digital, 2/0 (L,R) ch, ~192 kbps
Аудио #2: English: 48 kHz, AC3 Dolby Digital, 2/0 (L,R) ch, ~192 kbps
Cубтитры: отсутствуют-

Media Info

General
Complete name : F:\The.Road.Within.2014.L1.WEB-DLRip.avi
Format : AVI
Format/Info : Audio Video Interleave
File size : 1.46 GiB
Duration : 1h 41mn
Overall bit rate : 2 055 Kbps
Writing application : VirtualDubMod 1.5.10.3 | www.virtualdub-fr.org || (build 2550/release)
Writing library : VirtualDubMod build 2550/release
Video
ID : 0
Format : MPEG-4 Visual
Format profile : Advanced [email protected]
Format settings, BVOP : 1
Format settings, QPel : No
Format settings, GMC : No warppoints
Format settings, Matrix : Custom
Codec ID : XVID
Codec ID/Hint : XviD
Duration : 1h 41mn
Bit rate : 1 656 Kbps
Width : 720 pixels
Height : 400 pixels
Display aspect ratio : 16:9
Frame rate : 23.976 fps
Color space : YUV
Chroma subsampling : 4:2:0
Bit depth : 8 bits
Scan type : Progressive
Compression mode : Lossy
Bits/(Pixel*Frame) : 0.240
Stream size : 1.18 GiB (81%)
Writing library : XviD 73
Audio #1
ID : 1
Format : AC-3
Format/Info : Audio Coding 3
Mode extension : CM (complete main)
Format settings, Endianness : Big
Codec ID : 2000
Duration : 1h 41mn
Bit rate mode : Constant
Bit rate : 192 Kbps
Channel(s) : 2 channels
Channel positions : Front: L R
Sampling rate : 44.1 KHz
Compression mode : Lossy
Delay relative to video : 27ms
Stream size : 140 MiB (9%)
Alignment : Split accross interleaves
Interleave, duration : 42 ms (1.00 video frame)
Interleave, preload duratio : 500 ms
Audio #2
ID : 2
Format : AC-3
Format/Info : Audio Coding 3
Mode extension : CM (complete main)
Format settings, Endianness : Big
Codec ID : 2000
Duration : 1h 41mn
Bit rate mode : Constant
Bit rate : 192 Kbps
Channel(s) : 2 channels
Channel positions : Front: L R
Sampling rate : 48.0 KHz
Compression mode : Lossy
Delay relative to video : 17ms
Stream size : 140 MiB (9%)
Alignment : Split accross interleaves
Interleave, duration : 42 ms (1.00 video frame)
Interleave, preload duratio : 500 ms
-Скриншоты:-
Яндекс.Метрика
Рейтинг@Mail.ru