Американцы / The Americans / Сезон: 3 / Полный / Серии: 13 из 13 (Дэниэл Эттиэс / Daniel Attias ...) [2015 г., триллер, драма, криминал, детектив, ..., WEB-DLRip] MVO (NewStudio) + Original (Eng)

 

Создавать темы 25-Апр-2015 20:20

-Американцы / The Americans
«All's fair in love and cold war»
-- Страна: США
Жанр: боевик, драма, военный, история, ...
Год выпуска: 2015 г.-Мировая премьера: 30 января 2013, ...-Озвучка: Студия
Перевод: Многоголосый закадровый, профессиональный
Оригинальный аудиопоток: английский-Автор перевода: Weirdie
Постер: Андрей Шапал-Режиссер: Дэниэл Эттиэс / Daniel Attias, Адам Аркин / Adam Arkin , Джон Дал / John Dahl ...-В ролях: Кери Рассел, Мэттью Риз, Ноа Эммерик, Холли Тейлор, Кейдрич Селлати, Аннет Махендру, Ричард Томас, Сьюзэн Миснер, Элисон Райт, Лев Горн-Описание:
История о сложном браке двух агентов КГБ, которые под видом американцев заселяются в пригород Вашингтона сразу после того, как президентом избирают Рейгана. Подставной брак Филлипа и Элизабет с каждым днем становится все более настоящим и эмоциональным, несмотря на эскалацию холодной войны и опасные отношения, которые они должны поддерживать с сетью шпионов и информаторов. Напряжение нарастает, когда появляется новый сосед Стэн, агент ФБР, который работает в контрразведке.-Сезон: 3
Серии: 13 из 13 серий
Продолжительность: ~ 00:49:00 мин серия-Качество видео: WEB-DLRip
Контейнер: AVI
Видео кодек: XviD
Аудио кодек: MP3
Видео: MPEG-4 Visual at 1292 Кбит/сек: 720 x 400 (1.800) at 23.976 fps: 0.20 Бит/Пиксели
Аудио Rus: MPEG Audio at 128 Кбит/сек, 2 канала, 48,0 КГц |NewStudio|
Аудио Eng: MPEG Audio at 128 Кбит/сек, 2 канала, 48,0 КГц |Original|
Cубтитры: отсутствуют
-

Список серий:

  • Семинар Эрхарда (EST Men)
  • Багаж (Baggage)
  • Дом на продажу (Open House)
  • Травы на десятку (Dimebag)
  • Перевал Саланг (Salang Pass)
  • Заново рождённая (Born Again)
  • Уолтер Таффет (Walter Taffet)
  • Разоблачение (Divestment)
  • Мечтают ли почтовые роботы об электроовцах? (Do Mail Robots Dream of Electric Sheep?)
  • Осы (Stingers)
  • Один день из жизни Антона Бакланова (One Day in the Life of Anton Baklanov)
  • Я Абассин Задран (I Am Abassin Zadran)
  • 8 Марта 1983 (March 8, 1983)

Media Info

[pre]
Общее
Полное имя                               : E:\_Сериалы\_Сериалы\Американцы\The.Americans.s03.WEBDLRip.NewStudio.TV\The.Americans.s03e01.WEBDLRip.NewStudio.TV.avi
Формат                                   : AVI
Формат/Информация                        : Audio Video Interleave
Размер файла                             : 550 Мбайт
Продолжительность                        : 49 м.
Общий поток                              : 1561 Кбит/сек
Программа кодирования                    : VirtualDubMod 1.5.10.2 (build 2540/release)
Библиотека кодирования                   : VirtualDubMod build 2540/release
Видео
Идентификатор                            : 0
Формат                                   : MPEG-4 Visual
Профиль формата                          : Advanced [email protected]
Параметр BVOP формата                    : 2
Параметр QPel формата                    : Нет
Параметр GMC формата                     : Без точки перехода
Параметр матрицы формата                 : Default (MPEG)
Идентификатор кодека                     : XVID
Идентификатор кодека/Подсказка           : XviD
Продолжительность                        : 49 м.
Битрейт                                  : 1292 Кбит/сек
Ширина                                   : 720 пикселей
Высота                                   : 400 пикселей
Соотношение сторон                       : 16:9
Частота кадров                           : 23,976 кадра/сек
Цветовое пространство                    : YUV
Субдискретизация насыщенности            : 4:2:0
Битовая глубина                          : 8 бит
Тип развёртки                            : Прогрессивная
Метод сжатия                             : С потерями
Бит/(Пиксели*Кадры)                      : 0.187
Размер потока                            : 455 Мбайт (83%)
Библиотека кодирования                   : XviD 64
Аудио #1
Идентификатор                            : 1
Формат                                   : MPEG Audio
Версия формата                           : Version 1
Профиль формата                          : Layer 3
Режим                                    : Joint stereo
Расширение режима                        : MS Stereo
Идентификатор кодека                     : 55
Идентификатор кодека/Подсказка           : MP3
Продолжительность                        : 49 м.
Вид битрейта                             : Постоянный
Битрейт                                  : 128 Кбит/сек
Каналы                                   : 2 канала
Частота                                  : 48,0 КГц
Метод сжатия                             : С потерями
Размер потока                            : 45,1 Мбайт (8%)
Выравнивание                             : Соединение по промежуткам
Продолжительность промежутка             : 42  мс. (1,00 видеокадр)
Время предзагрузки промежутка            : 504  мс.
Аудио #2
Идентификатор                            : 2
Формат                                   : MPEG Audio
Версия формата                           : Version 1
Профиль формата                          : Layer 3
Режим                                    : Joint stereo
Расширение режима                        : MS Stereo
Идентификатор кодека                     : 55
Идентификатор кодека/Подсказка           : MP3
Продолжительность                        : 49 м.
Вид битрейта                             : Постоянный
Битрейт                                  : 128 Кбит/сек
Каналы                                   : 2 канала
Частота                                  : 48,0 КГц
Метод сжатия                             : С потерями
Размер потока                            : 45,1 Мбайт (8%)
Выравнивание                             : Соединение по промежуткам
Продолжительность промежутка             : 42  мс. (1,00 видеокадр)
Время предзагрузки промежутка            : 504  мс.
Библиотека кодирования                   : LAME3.99r
Настройки программы                      : -m j -V 4 -q 2 -lowpass 17 -b 128
[/pre]
-

Скриншот c названием фильма

-

Скриншоты:

-
Яндекс.Метрика
Рейтинг@Mail.ru