[ Сегодня на трекере фрилич! Идет свободное скачивание без начисления Download ]

Шафер напрокат / The Wedding Ringer (Джереми Гарелик / Jeremy Garelick) [2015, США, комедия, мелодрама, BDRip 720p] VO (by Shoegaze) + Sub Rus + Original Eng

 

Создавать темы 24-Апр-2015 22:07

Шафер напрокат / The Wedding Ringer Информация о фильме:
Год выпуска: 2015
Страна: США
Студия: LStar Capital, Miramax, Screen Gems
Жанр: комедия, мелодрама
Продолжительность: 01:41:26
Перевод: Одноголосый закадровый / Озвучено: by Shoegaze
Режиссер: Джереми Гарелик / Jeremy Garelick
В ролях: Кевин Харт, Джош Гад, Кейли Куоко-Суитинг, Эффион Крокетт, Хорхе Гарсиа, Дэн Гилл, Кори Холкомб, Кен Ховард, Колин Кэйн, Клорис Личмен
Описание: Главный герой женится на девушке своей мечты. Он купил кольца и смокинг, оплатил шикарный ресторан, но для идеальной церемонии не хватает маленькой детали — друзей жениха. Эту «услугу» он находит в специальном агентстве, где напрокат получает целый комплект «друзей»… Пройдет ли теперь подготовка и сама свадьба идеально?

Сэмпл: http://sendfile.su/1111444
Скачать: HDRip
Файл
Тип релиза: BDRip 720p (x264)
Контейнер: MKV
Видео: MPEG-4 AVC, 4658 kbps, 1280x536
Аудио #1: Rus: AC3, 6 ch, 448 kbps
Аудио #2: Eng: AC3, 6 ch, 448 kbps
Cубтитры: русские, английские
Формат субтитров: softsub (SRT)

MediaInfo

General
Unique ID : 201941799421992336482313963378260451440 (0x97EC936B1A98455C9D729065F5FA2070)
Complete name : The.Wedding.Ringer.2015.720p.BluRay.x264.rus.eng.ac3.mkv
Format : Matroska
Format version : Version 4 / Version 2
File size : 3.94 GiB
Duration : 1h 41mn
Overall bit rate : 5 555 Kbps
Encoded date : UTC 2010-02-22 21:41:31
Writing application : mkvmerge v5.9.0 ('On The Loose') built on Dec 9 2012 15:37:01
Writing library : libebml v1.3.0 + libmatroska v1.4.0
Video
ID : 1
Format : AVC
Format/Info : Advanced Video Codec
Format profile : [email protected]
Format settings, CABAC : Yes
Format settings, ReFrames : 5 frames
Muxing mode : Header stripping
Codec ID : V_MPEG4/ISO/AVC
Duration : 1h 41mn
Bit rate : 4 658 Kbps
Width : 1 280 pixels
Height : 536 pixels
Display aspect ratio : 2.40:1
Frame rate mode : Constant
Frame rate : 23.976 fps
Color space : YUV
Chroma subsampling : 4:2:0
Bit depth : 8 bits
Scan type : Progressive
Bits/(Pixel*Frame) : 0.283
Stream size : 3.22 GiB (82%)
Writing library : x264 core 146 r2538 121396c
Encoding settings : cabac=1 / ref=5 / deblock=1:0:0 / analyse=0x3:0x133 / me=umh / subme=7 / psy=1 / psy_rd=1.00:0.00 / mixed_ref=1 / me_range=16 / chroma_me=1 / trellis=1 / 8x8dct=1 / cqm=0 / deadzone=21,11 / fast_pskip=1 / chroma_qp_offset=-2 / threads=8 / lookahead_threads=1 / sliced_threads=0 / nr=0 / decimate=1 / interlaced=0 / bluray_compat=0 / constrained_intra=0 / bframes=3 / b_pyramid=2 / b_adapt=2 / b_bias=0 / direct=3 / weightb=1 / open_gop=0 / weightp=2 / keyint=250 / keyint_min=23 / scenecut=40 / intra_refresh=0 / rc_lookahead=50 / rc=2pass / mbtree=1 / bitrate=4658 / ratetol=1.0 / qcomp=0.60 / qpmin=0 / qpmax=69 / qpstep=4 / cplxblur=20.0 / qblur=0.5 / ip_ratio=1.40 / aq=1:1.00
Language : English
Default : Yes
Forced : No
Audio #1
ID : 4
Format : AC-3
Format/Info : Audio Coding 3
Mode extension : CM (complete main)
Format settings, Endianness : Big
Muxing mode : Header stripping
Codec ID : A_AC3
Duration : 1h 41mn
Bit rate mode : Constant
Bit rate : 448 Kbps
Channel(s) : 6 channels
Channel positions : Front: L C R, Side: L R, LFE
Sampling rate : 48.0 KHz
Bit depth : 16 bits
Compression mode : Lossy
Stream size : 325 MiB (8%)
Language : Russian
Default : Yes
Forced : No
Audio #2
ID : 5
Format : AC-3
Format/Info : Audio Coding 3
Mode extension : CM (complete main)
Format settings, Endianness : Big
Muxing mode : Header stripping
Codec ID : A_AC3
Duration : 1h 41mn
Bit rate mode : Constant
Bit rate : 448 Kbps
Channel(s) : 6 channels
Channel positions : Front: L C R, Side: L R, LFE
Sampling rate : 48.0 KHz
Bit depth : 16 bits
Compression mode : Lossy
Stream size : 325 MiB (8%)
Language : English
Default : No
Forced : No
Text #1
ID : 2
Format : UTF-8
Codec ID : S_TEXT/UTF8
Codec ID/Info : UTF-8 Plain Text
Title : English
Language : English
Default : No
Forced : No
Text #2
ID : 3
Format : UTF-8
Codec ID : S_TEXT/UTF8
Codec ID/Info : UTF-8 Plain Text
Title : English SDH
Language : English
Default : No
Forced : No
Text #3
ID : 6
Format : UTF-8
Codec ID : S_TEXT/UTF8
Codec ID/Info : UTF-8 Plain Text
Language : Russian
Default : No
Forced : No
Menu
00:00:00.000 : en:00:00:00.000
00:08:14.077 : en:00:08:14.077
00:13:08.538 : en:00:13:08.538
00:19:36.675 : en:00:19:36.675
00:23:17.479 : en:00:23:17.479
00:27:22.558 : en:00:27:22.558
00:33:22.417 : en:00:33:22.417
00:40:42.023 : en:00:40:42.023
00:47:49.950 : en:00:47:49.950
00:53:47.641 : en:00:53:47.641
01:01:40.906 : en:01:01:40.906
01:07:18.868 : en:01:07:18.868
01:12:35.268 : en:01:12:35.268
01:19:47.908 : en:01:19:47.908
01:27:12.978 : en:01:27:12.978
01:35:08.202 : en:01:35:08.202
[spoiler-"Скриншоты"]
Яндекс.Метрика
Рейтинг@Mail.ru