Молчание ягнят / The Silence of the Lambs (1990) BDRip 720p | 60fps

 

Создавать темы 13-Апр-2015 09:22

Молчание ягнят / The Silence of the Lambs (1990) BDRip 720p | 60fps«From the terrifying best seller»- Информация о фильме
Название: Молчание ягнят
Оригинальное название: The Silence of the Lambs
Год выхода: 1990
Жанр: Триллер, криминал, детектив, драма
Режиссер: Джонатан Демме
Продюсер: Эдвард Саксон, Кеннет Атт, Грэйс Блейк
В ролях: Джоди Фостер, Энтони Хопкинс, Брук Смит, Скотт Гленн, Тед Левайн, Энтони Хилд, Кейси Леммонс, Дайан Бэйкер, Чарльз Нэпьер,
Роджер Корман, Дэн Батлер, Пол Лэзар, Пэт МакНамара, Трейси Уолтер, Фрэнки Фэйзон
Описание фильма:
Психопат похищает и убивает молодых женщин по всему Среднему Западу Америки. ФБР, уверенное в том, что все преступления совершены одним и тем же человеком, поручает агенту Клариссе Старлинг встретиться с заключенным-маньяком, который мог бы объяснить следствию психологические мотивы серийного убийцы и тем самым вывести на его след...
Страна: США
Студия: Orion Pictures Corporation, Strong Heart/Demme Production
Продолжительность: 01:58:31
Перевод: Дублированный (Лицензия)
Субтитры: Вшитые, отключаемые
Язык субтитров: Русский (Full), Английский (Full)
Дата мировой премьеры: 30 января 1991
Дата выхода DVD релиза: 5 февраля 2009, «Двадцатый Век Фокс СНГ»
Дата выхода Blu-Ray релиза: 23 апреля 2009, «Двадцатый Век Фокс СНГ»
Файл
Формат: MKV
Кодек: MPEG-4 AVC/H.264
Качество: BDRip 720p
Видео: ~ 10.2 Мбит/сек, 1280 x 720, 59.940 кадров/сек
Аудио: AC3 5.1, 48.0 KHz, 640 Кбит/сек - Русский

Важно

В фильме с 57 минуты и на протяжении 5 минут присутствует незначительное подтормаживание видео.С аудио всё впорядке.

MediaInfo

Общее
Полное имя : D:\Торренты\The Silence of the Lambs 60fps.mkv
Формат : Matroska
Версия формата : Version 2
Размер файла : 9,12 Гбайт
Продолжительность : 1 ч. 58 м.
Общий поток : 11,0 Мбит/сек
Название фильма : The Silence of the Lambs (1991) 1080p BD-Remux
Дата кодирования : UTC 2015-04-11 05:27:42
Программа кодирования : mkvmerge v6.9.1 ('Blue Panther') 64bit built on Apr 18 2014 18:23:38
Библиотека кодирования : libebml v1.3.0 + libmatroska v1.4.1
Видео
Идентификатор : 1
Формат : AVC
Формат/Информация : Advanced Video Codec
Профиль формата : [email protected]
Параметр CABAC формата : Да
Параметр ReFrames формата : 6 кадров
Идентификатор кодека : V_MPEG4/ISO/AVC
Продолжительность : 1 ч. 58 м.
Битрейт : 10,2 Мбит/сек
Ширина : 1280 пикселей
Высота : 720 пикселей
Соотношение сторон : 16:9
Режим частоты кадров : Постоянный
Частота кадров : 59,880 кадров/сек
Частота кадров в оригинале : 59,940 кадров/сек
Цветовое пространство : YUV
Субдискретизация насыщенности : 4:2:0
Битовая глубина : 8 бит
Тип развёртки : Прогрессивная
Бит/(Пиксели*Кадры) : 0.184
Размер потока : 8,41 Гбайт (92%)
Заголовок : Release by mimok
Библиотека кодирования : x264 core 130 r2273 b3065e6
Настройки программы : cabac=1 / ref=6 / deblock=1:0:0 / analyse=0x3:0x133 / me=umh / subme=8 / psy=1 / psy_rd=1.00:0.15 / mixed_ref=1 / me_range=20 / chroma_me=1 / trellis=2 / 8x8dct=1 / cqm=0 / deadzone=21,11 / fast_pskip=0 / chroma_qp_offset=-3 / threads=6 / lookahead_threads=2 / sliced_threads=0 / nr=0 / decimate=0 / interlaced=0 / bluray_compat=0 / constrained_intra=0 / bframes=8 / b_pyramid=2 / b_adapt=2 / b_bias=0 / direct=1 / weightb=1 / open_gop=0 / weightp=2 / keyint=250 / keyint_min=25 / scenecut=40 / intra_refresh=0 / rc=crf / mbtree=0 / crf=18.0 / qcomp=0.63 / qpmin=10 / qpmax=51 / qpstep=4 / ip_ratio=1.40 / pb_ratio=1.30 / aq=1:1.20
Default : Да
Forced : Нет
Аудио
Идентификатор : 2
Формат : AC-3
Формат/Информация : Audio Coding 3
Расширение режима : CM (complete main)
Параметр Endianness формата : Big
Идентификатор кодека : A_AC3
Продолжительность : 1 ч. 58 м.
Вид битрейта : Постоянный
Битрейт : 640 Кбит/сек
Каналы : 6 каналов
Расположение каналов : Front: L C R, Side: L R, LFE
Частота : 48,0 КГц
Битовая глубина : 16 бит
Метод сжатия : С потерями
Размер потока : 543 Мбайт (6%)
Заголовок : Dub
Язык : Russian
Default : Да
Forced : Нет
Текст #1
Идентификатор : 3
Формат : UTF-8
Идентификатор кодека : S_TEXT/UTF8
Идентификатор кодека/Информация : UTF-8 Plain Text
Заголовок : Киномания,Full
Язык : Russian
Default : Да
Forced : Нет
Текст #2
Идентификатор : 4
Формат : UTF-8
Идентификатор кодека : S_TEXT/UTF8
Идентификатор кодека/Информация : UTF-8 Plain Text
Заголовок : Full
Язык : English
Default : Нет
Forced : Нет

Скриншоты:

Яндекс.Метрика
Рейтинг@Mail.ru