[ Сегодня на трекере фрилич! Идет свободное скачивание без начисления Download ]

Последний неандерталец / Ao, le dernier Neandertal (2010) BDRip [H.264 / 1080p]

 

Создавать темы 13-Апр-2015 00:49

--Последний неандерталец / Ao, le dernier Neandertal (2010) BDRip [H.264 / 1080p]-- Производство: Франция
Жанр: Приключения, Драма
Режиссер: Жак Малатэр / Jacques Malaterre
Актеры: Агие, Хелми Дриди, Илиан Иванов, Весела Казакова, Сара Малатье, Аруна Шилдс, Саймон Пол Саттон, Явор Веселинов
Описание:
Речь пойдёт о последнем неандертальце, который вынужден отправиться в далёкое, далёкое путешествие, чтобы выжить. Все его соплеменники погибли, он потерял жену и детей, и вот он пробирается из суровых условий северных широт, где его ждут жестокие схватки с дикими зверями, в южные земли, где его ждёт не менее жестокое соперничество с местными племенами.-
Продолжительность: 01:23:45
Качество видео: BDRip 1080p
Перевод: Двуголосый закадровый
Язык субтитров: Английский
Вид субтитров: Вшитые
Видеокодек: AVC/H.264
Битрейт видео: ~9 702 Kbps (24.000 fps)
Размер кадра: 1920х816 (2.35:1)
Аудио 1: AC3, 5.1 ch, 448 Kbps, 48000 Hz - Русский
Аудио 2: DTS, 5.1 ch, 1510 Kbps, 48000 Hz - Французский-

Доп. информация:

Благодарность за рип - storog-86

Mediainfo:

Код:
I:\Torrent_Download\Ao_Le_Dernier_Neandertal_2010_1080p.mkv
General
Unique ID : 181979961838434227137449505814872699675 (0x88E810D6D8E49FD1BB46BFE3D259B31B)
Complete name : I:\Torrent_Download\Ao_Le_Dernier_Neandertal_2010_1080p.mkv
Format : Matroska
File size : 6.82 GiB
Duration : 1h 23mn
Overall bit rate : 11.7 Mbps
Encoded date : UTC 2012-02-10 20:53:48
Writing application : mkvmerge v5.3.0 ('I could have danced') built on Feb 9 2012 10:38:07
Writing library : libebml v1.2.3 + libmatroska v1.3.0
Video #1
ID : 1
Format : AVC
Format/Info : Advanced Video Codec
Format profile : [email protected]
Format settings, CABAC : Yes
Format settings, ReFrames : 5 frames
Codec ID : V_MPEG4/ISO/AVC
Duration : 1h 23mn
Bit rate : 9 702 Kbps
Width : 1 920 pixels
Height : 816 pixels
Display aspect ratio : 2.35:1
Frame rate : 24.000 fps
Color space : YUV
Chroma subsampling : 4:2:0
Bit depth : 8 bits
Scan type : Progressive
Bits/(Pixel*Frame) : 0.258
Stream size : 5.54 GiB (81%)
Writing library : x264 core 113 r1884 7313bb5
Encoding settings : cabac=1 / ref=5 / deblock=1:0:0 / analyse=0x3:0x113 / me=umh / subme=7 / psy=1 / psy_rd=1.00:0.00 / mixed_ref=1 / me_range=16 / chroma_me=1 / trellis=1 / 8x8dct=1 / cqm=0 / deadzone=21,11 / fast_pskip=0 / chroma_qp_offset=-2 / threads=6 / sliced_threads=0 / nr=0 / decimate=1 / interlaced=0 / constrained_intra=0 / bframes=3 / b_pyramid=2 / b_adapt=1 / b_bias=0 / direct=1 / weightb=1 / open_gop=0 / weightp=2 / keyint=250 / keyint_min=24 / scenecut=40 / intra_refresh=0 / rc_lookahead=40 / rc=2pass / mbtree=1 / bitrate=9702 / ratetol=1.0 / qcomp=0.60 / qpmin=0 / qpmax=69 / qpstep=4 / cplxblur=20.0 / qblur=0.5 / ip_ratio=1.40 / aq=1:1.00
Language : French
Audio #2
ID : 2
Format : AC-3
Format/Info : Audio Coding 3
Mode extension : CM (complete main)
Codec ID : A_AC3
Duration : 1h 23mn
Bit rate mode : Constant
Bit rate : 448 Kbps
Channel(s) : 6 channels
Channel positions : Front: L C R, Side: L R, LFE
Sampling rate : 48.0 KHz
Bit depth : 16 bits
Compression mode : Lossy
Stream size : 268 MiB (4%)
Title : AC3 5.1 @ 448 Kbps - Многоголосый закадровый
Language : Russian
Audio #3
ID : 3
Format : DTS
Format/Info : Digital Theater Systems
Codec ID : A_DTS
Duration : 1h 23mn
Bit rate mode : Constant
Bit rate : 1 510 Kbps
Channel(s) : 6 channels
Channel positions : Front: L C R, Side: L R, LFE
Sampling rate : 48.0 KHz
Bit depth : 24 bits
Compression mode : Lossy
Stream size : 904 MiB (13%)
Title : DTS 5.1 @ 1510 kbps
Language : French
Text #4
ID : 4
Format : UTF-8
Codec ID : S_TEXT/UTF8
Codec ID/Info : UTF-8 Plain Text
Language : English
Text #5
ID : 5
Format : UTF-8
Codec ID : S_TEXT/UTF8
Codec ID/Info : UTF-8 Plain Text
Language : English
Скриншоты:

Дополнительные скриншоты:

Яндекс.Метрика
Рейтинг@Mail.ru