[ Сегодня на трекере фрилич! Идет свободное скачивание без начисления Download ]

Призвание. Том 1, диск 2 / Сезон: Первый / Серии: 1-4 из 4 (Виктор Сергеев) [2005 г., детектив, криминал, DVD5, PAL]

 

Создавать темы 10-Апр-2015 16:30

-Призвание. Том 1, диск 2-- Производство: РЕКУН ТВ при участии национальной киностудии «Беларусьфильм»
Жанр: детектив, криминал
Год выпуска: 2005 г.
Продолжительность: 02:56:00
Мировая премьера: 30 мая 2005
Российская премьера: 30 мая 2005
Дата выхода DVD: 31 октября 2005
Режиссер: Виктор Сергеев-В ролях: Андрей Мерзликин, Алексей Панин, Борис Соколов, Александр Вергунов, Евгений Никитин, Алексей Бычков, Олег Соловьев, Андрей Рапопорт, Александр Ревенко, Виктор Рыбчинский, Ольга Зайцева, Наталья Гудкова, Иннокентий Сичкарь.-Описание: Действие фильма основано на реальных исторических событиях.
Самые громкие преступления с середины 80-х годов прошлого столетия и до наших дней были использованы в качестве основы для детективного сюжета картины.
Молодой человек из Одессы, некий Олег Крайнов, отслужив в армии, приезжает в Москву поступать в престижный ВГИК на актерский факультет. Но денег молодому абитуриенту не хватает ни на что, даже на проездной билет в метро. Да еще он становится жертвой мошенников. В итоге Олег приходит работать в милицию, где и находит свое призвание. К работе он подходит творчески, за что и получает прозвище Артист. В интересах расследования Олег виртуозно перевоплощается в «бизнесмена», «бандита», «лоха». Стараясь идти в ногу с прогрессом, он внедряет в работу милиции новые технологии. Крайнов никогда не изменит себе и своим принципам, чем заслуживает репутацию порядочного человека и честного мента…-Качество видео: DVD5
Контейнер: DVD Video
Видео кодек: MPEG2
Аудио кодек: AC3
Видео: 720x576 пикселей; 2867 Кбит/сек; 25,000 кадров/сек
Формат DVD: PAL
Аудио: 448 Кбит/сек; 6 каналов; 48,0 КГц
Cубтитры: отсутствуют

Доп. информация

Производство РЕКУН ТВ при участии национальной киностудии «Беларусьфильм» по идее Олега Хотиненко.
2005 IMMEDIATE PRODUCTIONS LIMITED. 2006 «СР Диджитал».
Сценарий Рустам Измайлов, Александр Пронин, Олег Хатюшенко.
Оператор Сергей Киселев. Композитор Виктор Лебедев. Художник Игорь Щелоков.
Продюсеры Валерий Тодоровский, Илья Неретин.
В данный релиз вошли два фильма по две серии каждый:
Фильм 3: ДЕНЬГИ ИЗ ВОЗДУХА. Фильм 4: КАРАВАН.

Рецензия

Рецензия 1.
Иногда жизнь несколько раз заставляет удивляться одному и тому же явлению. Вот таким явлением для меня стал Андрей Мерзликин. Первый раз он меня удивил, когда я посмотрела фильм "Гидравлика", тогда мне показалось, что он просто "психанул", сыграл на грани возможности, потому что так играть не возможно, просто сердце не выдержит...
Второй раз он меня удивил в фильме "Обратный отсчет".
Но здесь все как-то было обосновано: не только талант, но и спецэффекты сыграли свою роль.
А вот сильным удивлением был сериал "Призвание", где Андрей Мерзликин играет главную роль.
Парень пошел служить в милицию, потому что не смог поступить в театральное училище. И, как не странно, не востребованный талант в киноискусстве, ему приходится применять в силовых структурах. И это приносит ему успех и славу...
Потрясающая игра актера! Не думала, что буду когда-нибудь так восхищаться этим актером. при всей своей "некрасивости" внешней, актер просто завораживает своей игрой и актерским мастерством!
Настоятельно рекомендую любителям сериалов про милицию и полицию!
Рецензия 2.
Есть сериалы, которые захватывают сразу, с самого первого кадра. А есть и такие, которые смотришь, смотришь и ничего не происходит, просто хочется поскорее прекратить трансляцию. Сериал «Призвание» как раз и относится ко второй категории. Я просто не вправе рекомендовать смотреть его онлайн, настолько это слабая работа во всех смыслах.
Взять сценарий. Сколько было таких картин, в которых герои не поступали именно во ВГИК, а затем искали себя по всей стране. В данном случае авторы облегчили себе задачу – герой сразу пошел работать в милицию, и практически с первых дней выбился в передовики. Да, бывают такие случаи, люди попадаются талантливые и у них сразу все получается. Но ловить бандитов, умных бизнесменов не так-то и просто, поэтому все, что делает герой в исполнении Андрея Мезликина, вызывает недоумение. У меня нет претензий ни к Мерзликину, ни к остальным участникам этого проекта, просто в некоторые моменты даже становится их жаль. Артисты талантливые, а драматургии нет, вот и приходится изобретать на ходу различные примочки, чтобы хоть как-то выглядеть на экране. Этот совместный фильм российских и белорусских кинематографистов оказался настолько слабым, что выпустив первую серию «Призвания», проект закрыли, справедливо рассуждая, что продолжать не имеет никакого смысла.

Media Info

Общее
Полное имя : E:\Призвание_TS_1-2\VTS_08_1.VOB
Формат : MPEG-PS
Размер файла : 1024 Мбайт
Продолжительность : 42 м.
Режим общего битрейта : Переменный
Общий поток : 3382 Кбит/сек
Видео
Идентификатор : 224 (0xE0)
Формат : MPEG Video
Версия формата : Version 2
Профиль формата : [email protected]
Параметр BVOP формата : Да
Параметр матрицы формата : Выборочная
Параметр GOP формата : M=3, N=15
Продолжительность : 42 м.
Вид битрейта : Переменный
Битрейт : 2867 Кбит/сек
Максимальный битрейт : 8000 Кбит/сек
Ширина : 720 пикселей
Высота : 576 пикселей
Соотношение сторон : 4:3
Частота кадров : 25,000 кадров/сек
Стандарт вещания : PAL
Цветовое пространство : YUV
Субдискретизация насыщенности : 4:2:0
Битовая глубина : 8 бит
Тип развёртки : Чересстрочная
Порядок развёртки : Верхнее поле первое
Метод сжатия : С потерями
Бит/(Пиксели*Кадры) : 0.277
Временной код первого кадра : 00:03:00:00
Оригинал временного кода : Group of pictures header
Размер потока : 868 Мбайт (85%)
Аудио
Идентификатор : 189 (0xBD)-128 (0x80)
Формат : AC-3
Формат/Информация : Audio Coding 3
Расширение режима : CM (complete main)
Параметр Endianness формата : Big
Режим смешивания : DVD-Video
Продолжительность : 42 м.
Вид битрейта : Постоянный
Битрейт : 448 Кбит/сек
Каналы : 6 каналов
Расположение каналов : Front: L C R, Side: L R, LFE
Частота : 48,0 КГц
Битовая глубина : 16 бит
Метод сжатия : С потерями
Задержка видео : -80 мс.
Размер потока : 136 Мбайт (13%)

DVDInfo

Title:
Size: 4.36 Gb ( 4 571 136 KBytes ) - DVD-5
Enabled regions: 1, 2, 3, 4, 5, 6, 7, 8
VTS_01 :
Play Length: 00:00:10
Video: PAL 4:3 (720x576) VBR
VTS_02 :
Play Length: 00:00:11
Video: PAL 4:3 (720x576) VBR
Audio:
Not specified (Dolby AC3, 6 ch)
Subtitles:
English
VTS_03 :
Play Length: 00:02:03
Video: PAL 4:3 (720x576) VBR
Audio:
Not specified (Dolby AC3, 6 ch)
VTS_04 :
Play Length: 00:00:14
Video: PAL 4:3 (720x576) VBR
Audio:
Not specified (Dolby AC3, 2 ch)
Subtitles:
Not specified
VTS_05 :
Play Length: 00:43:59
Video: PAL 4:3 (720x576) VBR
Audio:
Russian (Dolby AC3, 6 ch)
VTS_06 :
Play Length: 00:44:32
Video: PAL 4:3 (720x576) VBR
Audio:
Russian (Dolby AC3, 6 ch)
VTS_07 :
Play Length: 00:43:32
Video: PAL 4:3 (720x576) VBR
Audio:
Russian (Dolby AC3, 6 ch)
VTS_08 :
Play Length: 00:43:32
Video: PAL 4:3 (720x576) VBR
Audio:
Russian (Dolby AC3, 6 ch)

Скриншот c названием фильма и меню

Скриншоты

Яндекс.Метрика
Рейтинг@Mail.ru