[ Сегодня на трекере фрилич! Идет свободное скачивание без начисления Download ]

Унижение / The Humbling (2014) BDRip

 

Создавать темы 02-Апр-2015 14:00

--Унижение / The Humbling (2014) BDRip-- Производство: США / Ambi Pictures, Hammerton Productions
Жанр: Драма
Режиссер: Бэрри Левинсон
Продюсер: Барри Левинсон, Аль Пачино, Джейсон Соснофф
Актеры: Аль Пачино, Грета Гервиг, Дайэнн Уист, Кира Седжвик, Нина Арианда, Дилан Бэйкер, Чарльз Гродин, Дэн Хедайя, Мария Ди Анджелис, Виктор Круз
Описание фильма:
Успешный и знаменитый, одарённый, но уже «навсегда уставший» и утративший вдохновение актер в предвкушении финала карьеры пытается покончить с собой. Любовь и отношения с девушкой значительно моложе его, кардинально меняют вектор сведения счетов.-
Дата мировой премьеры: 30 августа 2014
Дата российской премьеры: 19 февраля 2015, «A-One Films»
Продолжительность: 01:46:56
Качество видео: BDRip
Перевод: Многоголосый закадровый, профессиональный
Субтитры: Вшитые отключаемые
Язык субтитров: Английский
Видео: AVC/H.264, ~15,9 Mbps, 1920 X 804, 23,976 fps
Аудио 1: Русский, AC3 5.1, 448 kbps, 48 kHz (MVO)
Аудио 2: Английский, AC3 5.1, 640 kbps, 48 kHz (Original)
Сэмпл: Скачать-

Mediainfo:

Код:
Общее
Уникальный идентификатор : 241056676587025782184088579660377502921 (0xB559D3C1A1D51235B457CBF764C034C9)
Полное имя : D:\Films\The.Humbling.2014.BDRip.1080p.mkv
Формат : Matroska
Версия формата : Version 2
Размер файла : 13,0 Гбайт
Продолжительность : 1 ч. 46 м.
Общий поток : 17,4 Мбит/сек
Дата кодирования : UTC 2015-04-02 06:40:07
Программа кодирования : mkvmerge v5.2.0 ('I can't explain') built on Dec 18 2011 18:12:03
Библиотека кодирования : libebml v1.2.3 + libmatroska v1.3.0
Видео
Идентификатор : 1
Формат : AVC
Формат/Информация : Advanced Video Codec
Профиль формата : [email protected]
Параметр CABAC формата : Да
Параметр ReFrames формата : 5 кадров
Идентификатор кодека : V_MPEG4/ISO/AVC
Продолжительность : 1 ч. 46 м.
Битрейт : 15,9 Мбит/сек
Ширина : 1920 пикселей
Высота : 804 пикселя
Соотношение сторон : 2,40:1
Режим частоты кадров : Постоянный
Частота кадров : 23,976 кадра/сек
Цветовое пространство : YUV
Субдискретизация насыщенности : 4:2:0
Битовая глубина : 8 бит
Тип развёртки : Прогрессивная
Бит/(Пиксели*Кадры) : 0.430
Размер потока : 11,9 Гбайт (92%)
Библиотека кодирования : x264 core 140 r2377kMod 1ca7bb9
Настройки программы : cabac=1 / ref=5 / deblock=1:-3:-3 / analyse=0x3:0x133 / me=umh / subme=11 / psy=1 / fade_compensate=0.00 / psy_rd=1.00:0.00 / mixed_ref=1 / me_range=24 / chroma_me=1 / trellis=2 / 8x8dct=1 / cqm=0 / deadzone=21,11 / fast_pskip=0 / chroma_qp_offset=-2 / threads=12 / lookahead_threads=2 / sliced_threads=0 / nr=0 / decimate=0 / interlaced=0 / bluray_compat=0 / constrained_intra=0 / fgo=0 / bframes=7 / b_pyramid=2 / b_adapt=2 / b_bias=0 / direct=3 / weightb=1 / open_gop=0 / weightp=2 / keyint=250 / keyint_min=24 / scenecut=40 / intra_refresh=0 / rc=crf / mbtree=0 / crf=17.5000 / qcomp=0.60 / qpmin=0 / qpmax=69 / qpstep=4 / ip_ratio=1.40 / pb_ratio=1.30 / aq=2:0.70
Язык : English
Default : Да
Forced : Нет
Коэффициенты матрицы : BT.709
colour_range : Limited
Аудио #1
Идентификатор : 2
Формат : AC-3
Формат/Информация : Audio Coding 3
Расширение режима : CM (complete main)
Параметр Endianness формата : Big
Идентификатор кодека : A_AC3
Продолжительность : 1 ч. 46 м.
Вид битрейта : Постоянный
Битрейт : 448 Кбит/сек
Каналы : 6 каналов
Расположение каналов : Front: L C R, Side: L R, LFE
Частота : 48,0 КГц
Битовая глубина : 16 бит
Метод сжатия : С потерями
Размер потока : 343 Мбайт (3%)
Заголовок : MVO
Язык : Russian
Default : Да
Forced : Нет
Аудио #2
Идентификатор : 3
Формат : AC-3
Формат/Информация : Audio Coding 3
Расширение режима : CM (complete main)
Параметр Endianness формата : Big
Идентификатор кодека : A_AC3
Продолжительность : 1 ч. 46 м.
Вид битрейта : Постоянный
Битрейт : 640 Кбит/сек
Каналы : 6 каналов
Расположение каналов : Front: L C R, Side: L R, LFE
Частота : 48,0 КГц
Битовая глубина : 16 бит
Метод сжатия : С потерями
Размер потока : 490 Мбайт (4%)
Заголовок : Original
Язык : English
Default : Нет
Forced : Нет
Текст #1
Идентификатор : 4
Формат : UTF-8
Идентификатор кодека : S_TEXT/UTF8
Идентификатор кодека/Информация : UTF-8 Plain Text
Язык : English
Default : Нет
Forced : Нет
Текст #2
Идентификатор : 5
Формат : UTF-8
Идентификатор кодека : S_TEXT/UTF8
Идентификатор кодека/Информация : UTF-8 Plain Text
Заголовок : SDH
Язык : English
Default : Нет
Forced : Нет
Меню
00:00:00.000 : en:00:00:00.000
00:11:38.364 : en:00:11:38.364
00:19:44.475 : en:00:19:44.475
00:29:22.427 : en:00:29:22.427
00:37:22.282 : en:00:37:22.282
00:49:39.393 : en:00:49:39.393
00:57:34.993 : en:00:57:34.993
01:06:40.496 : en:01:06:40.496
01:16:01.640 : en:01:16:01.640
01:25:30.542 : en:01:25:30.542
01:31:47.043 : en:01:31:47.043
01:43:07.765 : en:01:43:07.765
Скриншоты:
Яндекс.Метрика
Рейтинг@Mail.ru