Торт / Cake (2014) BDRip [H.264/1080p] [VO]

 

Создавать темы 01-Апр-2015 22:58

-Торт / Cake (2014) BDRip- Производство: США, Cinelou Films, Echo Films, We're Not Brothers Productions
Жанр: Драма
Режиссер: Даниел Барнз
Актеры: Дженнифер Энистон, Адриана Барраса, Фелисити Хаффман, Уильям Х. Мэйси, Анна Кендрик, Сэм Уортингтон, Бритт Робертсон, Люси Панч, Крис Мессина, Мэми Гаммер, Камилла Гуати, Мисти Апхэм
Описание фильма:
Клэр привлекательная, веселая и острая на язык женщина. В один день она узнаёт о самоубийстве одной из участниц группы психологической поддержки, собрания которой она посещает из-за синдрома хронической боли. Клэр решает узнать историю этой несчастной. Копаясь в жизни покойной, она переживает болезненный роман с вдовцом и сама становится жертвой трагедии.-
Дата мировой премьеры: 8 сентября 2014-Продолжительность: 01:41:45
Качество видео: BDRip (profile LQ)
Перевод: Одноголосый закадровый, любительский
Озвучка / Автор перевода: Павел Морозов (PashaUp)
Субтитры: вшитые (отключены)
Язык субтитров: Русский, Английский
Видео: MPEG-4 AVC/H.264, 1920x792, ~9252 kbps, 2,40:1
Аудио #1: AC3, 44.1 kHz, 2 ch, 192 kbps (Русский)
Аудио #2: DTS, 48.0 kHz, 5.1 ch, 1509 kbps (Английский)

MediaInfo:

Общее
Полное имя : \Торт_Cake (2014) BDRip.1080p.VO.mkv
Формат : Matroska
Версия формата : Version 2
Размер файла : 7,78 Гбайт
Продолжительность : 1 ч. 41 м.
Общий поток : 10,9 Мбит/сек
Название фильма : Торт_Cake (2014) BDRip.1080p.VO
Дата кодирования : UTC 2015-04-01 17:34:23
Программа кодирования : mkvmerge v7.7.0 ('Six Voices') 64bit built on Feb 28 2015 23:39:33
Библиотека кодирования : libebml v1.3.1 + libmatroska v1.4.2
Видео
Идентификатор : 1
Формат : AVC
Формат/Информация : Advanced Video Codec
Профиль формата : [email protected]
Параметр CABAC формата : Да
Параметр ReFrames формата : 5 кадров
Идентификатор кодека : V_MPEG4/ISO/AVC
Продолжительность : 1 ч. 41 м.
Битрейт : 9252 Кбит/сек
Ширина : 1920 пикселей
Высота : 792 пикселя
Соотношение сторон : 2,40:1
Режим частоты кадров : Постоянный
Частота кадров : 23,976 кадра/сек
Цветовое пространство : YUV
Субдискретизация насыщенности : 4:2:0
Битовая глубина : 8 бит
Тип развёртки : Прогрессивная
Бит/(Пиксели*Кадры) : 0.254
Размер потока : 6,42 Гбайт (82%)
Заголовок : Торт_Cake (2014) BDRip.1080p.VO
Библиотека кодирования : x264 core 144 r2525 40bb568
Настройки программы : cabac=1 / ref=5 / deblock=1:0:0 / analyse=0x3:0x133 / me=umh / subme=7 / psy=1 / psy_rd=1.00:0.00 / mixed_ref=1 / me_range=16 / chroma_me=1 / trellis=1 / 8x8dct=1 / cqm=0 / deadzone=21,11 / fast_pskip=0 / chroma_qp_offset=-2 / threads=18 / lookahead_threads=3 / sliced_threads=0 / nr=0 / decimate=1 / interlaced=0 / bluray_compat=0 / constrained_intra=0 / bframes=3 / b_pyramid=2 / b_adapt=1 / b_bias=0 / direct=1 / weightb=1 / open_gop=0 / weightp=2 / keyint=250 / keyint_min=23 / scenecut=40 / intra_refresh=0 / rc_lookahead=40 / rc=2pass / mbtree=1 / bitrate=9252 / ratetol=1.0 / qcomp=0.60 / qpmin=0 / qpmax=69 / qpstep=4 / cplxblur=20.0 / qblur=0.5 / ip_ratio=1.40 / aq=1:1.00
Язык : English
Default : Да
Forced : Нет
Аудио #1
Идентификатор : 2
Формат : AC-3
Формат/Информация : Audio Coding 3
Расширение режима : CM (complete main)
Параметр Endianness формата : Big
Идентификатор кодека : A_AC3
Продолжительность : 1 ч. 41 м.
Вид битрейта : Постоянный
Битрейт : 192 Кбит/сек
Каналы : 2 канала
Расположение каналов : Front: L R
Частота : 44,1 КГц
Битовая глубина : 16 бит
Метод сжатия : С потерями
Размер потока : 140 Мбайт (2%)
Заголовок : VO (PashaUp)
Язык : Russian
Default : Да
Forced : Нет
Аудио #2
Идентификатор : 3
Формат : DTS
Формат/Информация : Digital Theater Systems
Режим : 16
Параметр Endianness формата : Big
Идентификатор кодека : A_DTS
Продолжительность : 1 ч. 41 м.
Вид битрейта : Постоянный
Битрейт : 1509 Кбит/сек
Каналы : 6 каналов
Расположение каналов : Front: L C R, Side: L R, LFE
Частота : 48,0 КГц
Битовая глубина : 24 бит
Метод сжатия : С потерями
Размер потока : 1,07 Гбайт (14%)
Язык : English
Default : Нет
Forced : Нет
Текст #1
Идентификатор : 4
Формат : UTF-8
Идентификатор кодека : S_TEXT/UTF8
Идентификатор кодека/Информация : UTF-8 Plain Text
Язык : Russian
Default : Нет
Forced : Нет
Текст #2
Идентификатор : 5
Формат : UTF-8
Идентификатор кодека : S_TEXT/UTF8
Идентификатор кодека/Информация : UTF-8 Plain Text
Язык : English
Default : Нет
Forced : Нет
Меню
00:00:00.000 : en:00:00:00.000
00:03:15.904 : en:00:03:15.904
00:05:44.886 : en:00:05:44.886
00:08:37.892 : en:00:08:37.892
00:10:55.780 : en:00:10:55.780
00:14:02.675 : en:00:14:02.675
00:17:06.943 : en:00:17:06.943
00:19:37.843 : en:00:19:37.843
00:22:36.772 : en:00:22:36.772
00:25:43.792 : en:00:25:43.792
00:27:12.756 : en:00:27:12.756
00:30:57.564 : en:00:30:57.564
00:34:20.267 : en:00:34:20.267
00:36:28.395 : en:00:36:28.395
00:37:57.817 : en:00:37:57.817
00:42:39.223 : en:00:42:39.223
00:47:09.910 : en:00:47:09.910
00:50:59.390 : en:00:50:59.390
00:52:19.345 : en:00:52:19.345
00:55:56.645 : en:00:55:56.645
01:00:21.451 : en:01:00:21.451
01:03:07.993 : en:01:03:07.993
01:07:40.139 : en:01:07:40.139
01:11:06.554 : en:01:11:06.554
01:15:55.134 : en:01:15:55.134
01:17:54.962 : en:01:17:54.962
01:22:18.100 : en:01:22:18.100
01:25:17.279 : en:01:25:17.279
01:27:48.013 : en:01:27:48.013
01:31:18.264 : en:01:31:18.264
01:33:50.416 : en:01:33:50.416
01:36:38.209 : en:01:36:38.209
Скриншоты:
Яндекс.Метрика
Рейтинг@Mail.ru