Район 37 / Outpost 37 (2014 ,Фантастика, боевик, триллер) HDRip

 

Создавать темы 31-Мар-2015 17:50

--Район 37 / Outpost 37 (2014) HDRip --Информация о фильме
Название: Район 37
Оригинальное название: Outpost 37
Год выхода: 2014
Жанр: Фантастика, боевик, триллер
Режиссер: Джаббар Райсани
В ролях: Эдриан Пол, Рик Раванелло, Рейли МакКлендон, Дуглас Тейт, Джо Риган, Мэттью Холмс, Эндрю Дэволи, Свен Райгрок, Брэндон Оре, Николас Расенти
О фильме:
Исследуя события - инопланетного вторжения, команда документалистов следует за элитным подразделением морских пехотинцев...-- --Страна: Великобритания, ЮАР
Студия: ltitude Film Entertainment, Bigscope Films, Out of Africa Entertainment
Продолжительность: 01:31:49
Перевод: Профессиональный ( многоголосый )
Файл
Кодек: XviD
Качество: HDRip
Видео: 624x336 (1.86:1), 23.976 fps, XviD build 73 ~996 kbps avg, 0.20 bit/pixel
Звук: 48 kHz, MPEG Layer 3, 2 ch, ~128.00 kbps avg
Субтитры: Отсутствуют

MI

Общее
Полное имя : D:Рипы изготовлениеRayon.37.2014.P.HDRip.от Шкипер.avi
Формат : AVI
Формат/Информация : Audio Video Interleave
Размер файла : 745 Мбайт
Продолжительность : 1 ч. 31 м.
Общий поток : 1134 Кбит/сек
Программа кодирования : VirtualDubMod 1.5.10.3 | www.virtualdub-fr.org || (build 2550/release)
Библиотека кодирования : VirtualDubMod build 2550/release
Видео
Идентификатор : 0
Формат : MPEG-4 Visual
Профиль формата : Advanced [email protected]
Параметр BVOP формата : 1
Параметр QPel формата : Нет
Параметр GMC формата : Без точки перехода
Параметр матрицы формата : Default (MPEG)
Идентификатор кодека : XVID
Идентификатор кодека/Подсказка : XviD
Продолжительность : 1 ч. 31 м.
Битрейт : 997 Кбит/сек
Ширина : 624 пикселя
Высота : 336 пикселей
Соотношение сторон : 1,85:1
Частота кадров : 23,976 кадра/сек
Цветовое пространство : YUV
Субдискретизация насыщенности : 4:2:0
Битовая глубина : 8 бит
Тип развёртки : Прогрессивная
Метод сжатия : С потерями
Бит/(Пиксели*Кадры) : 0.198
Размер потока : 655 Мбайт (88%)
Библиотека кодирования : XviD 73
Аудио
Идентификатор : 1
Формат : MPEG Audio
Версия формата : Version 1
Профиль формата : Layer 3
Режим : Joint stereo
Расширение режима : MS Stereo
Идентификатор кодека : 55
Идентификатор кодека/Подсказка : MP3
Продолжительность : 1 ч. 31 м.
Вид битрейта : Постоянный
Битрейт : 128 Кбит/сек
Каналы : 2 канала
Частота : 48,0 КГц
Метод сжатия : С потерями
Размер потока : 84,1 Мбайт (11%)
Выравнивание : Соединение по промежуткам
Продолжительность промежутка : 42 мс. (1,00 видеокадр)
Время предзагрузки промежутка : 504 мс.
Библиотека кодирования : LAME3.99r
Настройки программы : -m j -V 4 -q 2 -lowpass 17 -b 128

Скриншоты:

Яндекс.Метрика
Рейтинг@Mail.ru