Вселенная Стивена Хокинга / The Theory of Everything (2014) BDRip [H.264/1080p]

 

Создавать темы 28-Мар-2015 22:14

-Вселенная Стивена Хокинга / The Theory of Everything (2014) BDRip- Производство: Великобритания / Working Title Films
Жанр: Драма, Мелодрама, Биография
Режиссер: Джеймс Марш
Продюсер: Тим Беван, Лиза Брюс, Эрик Феллнер
Актеры: Эдди Редмэйн, Фелисити Джонс, Чарли Кокс, Дэвид Тьюлис, Эмили Уотсон, Максин Пик, Саймон МакБерни, Эбигейл Круттенден, Гарри Ллойд, Майкл Маркус Морган
Описание фильма:
История отношений Стивена Хокинга, гениального космолога, сражённого на заре карьеры "болезнью Лу Герига", и его жены, Джейн Хокинг.

Дата мировой премьеры: 7 сентября 2014
Дата российской премьеры: 26 февраля 2015, «UPI»
Дата выхода DVD/Blu-ray релиза: 2 апреля 2015, «Двадцатый Век Фокс СНГ»
Релиз от: HDCLUB
Продолжительность: 02:03:25
Качество видео: BDRip
Перевод: Дублированный, Одноголосый закадровый
Субтитры: Вшитые отключаемые
Язык субтитров: Русский, Украинский, Английский
Видео: AVC/H.264, ~17685 kbps, 1920 X 800, 23,076 fps
Аудио 1: Русский, DTS 5.1, 768 kbps, 48 kHz (DUB, BD CEE)
Аудио 2: Русский, DTS 5.1, 1509 kbps, 48 kHz (AVO, А.Матвеев)
Аудио 3: Английский, DTS 5.1, 1509 kbps, 48 kHz (Original)
Аудио 4: Английский, AC3 2.0, 192 kbps, 48 kHz (Комментарий режиссера)
Сэмпл: Скачать

Mediainfo:

Общее
Уникальный идентификатор                 : 245045629360553443517091378778467033737 (0xB85A124FF710C7DC99AB2155635D6289)
Полное имя                               : D:\Films\The.Theory.of.Everything.2014.1080p.BDRip.mkv
Формат                                   : Matroska
Версия формата                           : Version 2
Размер файла                             : 18,7 Гбайт
Продолжительность                        : 2 ч. 3 м.
Общий поток                              : 21,7 Мбит/сек
Дата кодирования                         : UTC 2015-03-28 15:06:13
Программа кодирования                    : mkvmerge v5.2.0 ('I can't explain') built on Dec 18 2011 18:12:03
Библиотека кодирования                   : libebml v1.2.3 + libmatroska v1.3.0
Видео
Идентификатор                            : 1
Формат                                   : AVC
Формат/Информация                        : Advanced Video Codec
Профиль формата                          : [url=mailto:[email protected]][email protected][/url]
Параметр CABAC формата                   : Да
Параметр ReFrames формата                : 5 кадров
Идентификатор кодека                     : V_MPEG4/ISO/AVC
Продолжительность                        : 2 ч. 3 м.
Битрейт                                  : 17,3 Мбит/сек
Ширина                                   : 1920 пикселей
Высота                                   : 800 пикселей
Соотношение сторон                       : 2,40:1
Режим частоты кадров                     : Постоянный
Частота кадров                           : 23,976 кадра/сек
Цветовое пространство                    : YUV
Субдискретизация насыщенности            : 4:2:0
Битовая глубина                          : 8 бит
Тип развёртки                            : Прогрессивная
Бит/(Пиксели*Кадры)                      : 0.469
Размер потока                            : 14,9 Гбайт (80%)
Библиотека кодирования                   : x264 core 144 r2525kMod 40bb568
Настройки программы                      : cabac=1 / ref=5 / deblock=1:-3:-3 / analyse=0x3:0x133 / me=tesa / subme=10 / psy=1 / fade_compensate=0.00 / psy_rd=1.00:0.00 / mixed_ref=1 / me_range=24 / chroma_me=1 / trellis=2 / 8x8dct=1 / cqm=0 / deadzone=21,11 / fast_pskip=0 / chroma_qp_offset=-2 / threads=12 / lookahead_threads=2 / sliced_threads=0 / nr=0 / decimate=1 / interlaced=0 / bluray_compat=0 / constrained_intra=0 / fgo=0 / bframes=7 / b_pyramid=2 / b_adapt=2 / b_bias=0 / direct=3 / weightb=1 / open_gop=0 / weightp=2 / keyint=240 / keyint_min=22 / scenecut=40 / intra_refresh=0 / rc_lookahead=60 / rc=crf / mbtree=0 / crf=17.1000 / qcomp=0.70 / qpmin=0 / qpmax=69 / qpstep=4 / vbv_maxrate=50000 / vbv_bufsize=62500 / crf_max=0.0 / nal_hrd=none / filler=0 / ip_ratio=1.35 / pb_ratio=1.25 / aq=3:0.70
Язык                                     : English
Default                                  : Да
Forced                                   : Нет
Основные цвета                           : BT.709
Характеристики трансфера                 : BT.709
Коэффициенты матрицы                     : BT.709
colour_range                             : Limited
Аудио #1
Идентификатор                            : 2
Формат                                   : DTS
Формат/Информация                        : Digital Theater Systems
Режим                                    : 16
Параметр Endianness формата              : Big
Идентификатор кодека                     : A_DTS
Продолжительность                        : 2 ч. 3 м.
Вид битрейта                             : Постоянный
Битрейт                                  : 755 Кбит/сек
Каналы                                   : 6 каналов
Расположение каналов                     : Front: L C R, Side: L R, LFE
Частота                                  : 48,0 КГц
Битовая глубина                          : 24 бит
Метод сжатия                             : С потерями
Размер потока                            : 666 Мбайт (3%)
Заголовок                                : DUB, Blu-ray CEE
Язык                                     : Russian
Default                                  : Да
Forced                                   : Нет
Аудио #2
Идентификатор                            : 3
Формат                                   : DTS
Формат/Информация                        : Digital Theater Systems
Режим                                    : 16
Параметр Endianness формата              : Big
Идентификатор кодека                     : A_DTS
Продолжительность                        : 2 ч. 3 м.
Вид битрейта                             : Постоянный
Битрейт                                  : 1509 Кбит/сек
Каналы                                   : 6 каналов
Расположение каналов                     : Front: L C R, Side: L R, LFE
Частота                                  : 48,0 КГц
Битовая глубина                          : 24 бит
Метод сжатия                             : С потерями
Размер потока                            : 1,30 Гбайт (7%)
Заголовок                                : AVO, A.Matveev
Язык                                     : Russian
Default                                  : Нет
Forced                                   : Нет
Аудио #3
Идентификатор                            : 4
Формат                                   : DTS
Формат/Информация                        : Digital Theater Systems
Режим                                    : 16
Параметр Endianness формата              : Big
Идентификатор кодека                     : A_DTS
Продолжительность                        : 2 ч. 3 м.
Вид битрейта                             : Постоянный
Битрейт                                  : 1509 Кбит/сек
Каналы                                   : 6 каналов
Расположение каналов                     : Front: L C R, Side: L R, LFE
Частота                                  : 48,0 КГц
Битовая глубина                          : 24 бит
Метод сжатия                             : С потерями
Задержка видео                           : 11 мс.
Размер потока                            : 1,30 Гбайт (7%)
Заголовок                                : Original
Язык                                     : English
Default                                  : Нет
Forced                                   : Нет
Аудио #4
Идентификатор                            : 5
Формат                                   : AC-3
Формат/Информация                        : Audio Coding 3
Профиль формата                          : Dolby Digital
Расширение режима                        : CM (complete main)
Параметр Endianness формата              : Big
Идентификатор кодека                     : A_AC3
Продолжительность                        : 2 ч. 3 м.
Вид битрейта                             : Постоянный
Битрейт                                  : 192 Кбит/сек
Каналы                                   : 2 канала
Расположение каналов                     : Front: L R
Частота                                  : 48,0 КГц
Битовая глубина                          : 16 бит
Метод сжатия                             : С потерями
Размер потока                            : 169 Мбайт (1%)
Заголовок                                : Commentary with Director James Marsh
Язык                                     : English
Default                                  : Нет
Forced                                   : Нет
Текст #1
Идентификатор                            : 6
Формат                                   : UTF-8
Идентификатор кодека                     : S_TEXT/UTF8
Идентификатор кодека/Информация          : UTF-8 Plain Text
Заголовок                                : Forced, Blu-ray CEE
Язык                                     : Russian
Default                                  : Да
Forced                                   : Нет
Текст #2
Идентификатор                            : 7
Формат                                   : UTF-8
Идентификатор кодека                     : S_TEXT/UTF8
Идентификатор кодека/Информация          : UTF-8 Plain Text
Заголовок                                : Blu-ray CEE
Язык                                     : Russian
Default                                  : Нет
Forced                                   : Нет
Текст #3
Идентификатор                            : 8
Формат                                   : UTF-8
Идентификатор кодека                     : S_TEXT/UTF8
Идентификатор кодека/Информация          : UTF-8 Plain Text
Заголовок                                : Blu-ray CEE
Язык                                     : Ukrainian
Default                                  : Нет
Forced                                   : Нет
Текст #4
Идентификатор                            : 9
Формат                                   : UTF-8
Идентификатор кодека                     : S_TEXT/UTF8
Идентификатор кодека/Информация          : UTF-8 Plain Text
Заголовок                                : SDH
Язык                                     : English
Default                                  : Нет
Forced                                   : Нет
Меню
00:00:00.000                             : en:Chapter 1
00:05:38.838                             : en:Chapter 2
00:10:19.619                             : en:Chapter 3
00:14:58.648                             : en:Chapter 4
00:19:52.525                             : en:Chapter 5
00:27:27.479                             : en:Chapter 6
00:36:14.672                             : en:Chapter 7
00:42:12.989                             : en:Chapter 8
00:49:21.542                             : en:Chapter 9
00:54:10.622                             : en:Chapter 10
01:01:03.785                             : en:Chapter 11
01:10:29.517                             : en:Chapter 12
01:17:11.085                             : en:Chapter 13
01:24:26.228                             : en:Chapter 14
01:30:39.100                             : en:Chapter 15
01:35:16.961                             : en:Chapter 16
01:40:20.932                             : en:Chapter 17
01:45:01.045                             : en:Chapter 18
01:52:26.448                             : en:Chapter 19
01:57:04.059                             : en:Chapter 20
Скриншоты:
Яндекс.Метрика
Рейтинг@Mail.ru