Ультиматум (2015) SATRip (серии 1-4 из 4)

 

Создавать темы 27-Мар-2015 16:57

- Производство: Россия / "Триикс Медиа"
Жанр: боевик-Режиссер: Игорь Драка
Актеры: Михаил Тарабукин, Гавриил Федотов, Евгений Бакалов, Дмитрий Сутырин, Владимир Постников, Эрик Кения, Кирилл Полухин, Сергей Апрельский, Аркадий Коваль, Артур Федынко, Светлана Бакулина, Вера Баханкова и др.-Описание фильма:
Сергей Ярохин - старший следователь убойного отдела. Принципиальный и несгибаемый. Живущий ради правого дела и всегда готовый на риск. Его ненавидят и преступники, и нечистые на руку коллеги. Сергей Ярохин всегда доводил до конца самые сложные и опасные дела и никогда не боялся угроз. Во время одной из операций с участием ОМОН, которой Ярохин руководит лично, «берут» главаря банды наркодилеров, который пытается скрыться, прикрываясь своими помощниками. В итоге в тюрьме оказываются все: и мелкие распространители, и сам главарь преступной группировки, закоренелый бандит Анатолий Быков, или Бык.
Дата российской премьеры: 27 марта 2015
Качество видео: SATRip
Продолжительность: ~00:44:00 серия
Видеокодек: XviD
Формат: AVI
Битрейт видео: ~1800 kbps
Размер кадра: 720x448
Аудиокодек: МР3, 2 ch
Битрейт аудио: 128 kbps

MI

Общее
Полное имя : D:\Ультиматум\Ultimatum.1..avi
Формат : AVI
Формат/Информация : Audio Video Interleave
Размер файла : 618 Мбайт
Продолжительность : 44 м.
Общий поток : 1933 Кбит/сек
Программа кодирования : VirtualDubMod 1.5.10.3 | www.virtualdub-fr.org || (build 2550/release)
Библиотека кодирования : VirtualDub build 29808/release
Видео
Идентификатор : 0
Формат : MPEG-4 Visual
Профиль формата : Advanced [email protected]
Параметр BVOP формата : 2
Параметр QPel формата : Нет
Параметр GMC формата : Без точки перехода
Параметр матрицы формата : Default (H.263)
Идентификатор кодека : XVID
Идентификатор кодека/Подсказка : XviD
Продолжительность : 44 м.
Битрейт : 1796 Кбит/сек
Ширина : 720 пикселей
Высота : 448 пикселей
Соотношение сторон : 16:10
Частота кадров : 25,000 кадров/сек
Цветовое пространство : YUV
Субдискретизация насыщенности : 4:2:0
Битовая глубина : 8 бит
Тип развёртки : Прогрессивная
Метод сжатия : С потерями
Бит/(Пиксели*Кадры) : 0.223
Размер потока : 574 Мбайт (93%)
Библиотека кодирования : XviD 1.2.1 (UTC 2008-12-04)
Аудио
Идентификатор : 1
Формат : MPEG Audio
Версия формата : Version 1
Профиль формата : Layer 3
Идентификатор кодека : 55
Идентификатор кодека/Подсказка : MP3
Продолжительность : 44 м.
Вид битрейта : Постоянный
Битрейт : 128 Кбит/сек
Каналы : 2 канала
Частота : 48,0 КГц
Метод сжатия : С потерями
Размер потока : 40,9 Мбайт (7%)
Выравнивание : Соединение по промежуткам
Продолжительность промежутка : 40 мс. (1,00 видеокадр)
Время предзагрузки промежутка : 504 мс.
Библиотека кодирования : LAME3.99r
Настройки программы : -m s -V 4 -q 2 -lowpass 17 -b 128
Скриншоты:
Яндекс.Метрика
Рейтинг@Mail.ru