Пришельцы / Extraterrestrial (2014) BDRip [720p]

 

Создавать темы 25-Мар-2015 20:03

-Пришельцы / Extraterrestrial (2014) BDRip- Производство: Канада, Abduction Films, Manis Film, Pink Buffalo Films, Twin Engine Films, Vicarious Entertainment
Жанр: Ужасы, Фантастика
Режиссер: Колин Минихан
Актеры: Бриттани Аллен, Фредди Строма, Мелани Папалиа, Джесси Мосс, Аня Савчич, Шон Роджерсон, Эмили Перкинс, Майк Ковач, Йен Браун, Фред Китинг
Описание фильма:
Человечество давно подозревает, что не одиноко во Вселенной. Загадочные вспышки в ночном небе, летательные аппараты явно неземного происхождения, таинственные исчезновения людей — это ли не свидетельства существования иного разума? Многие с нетерпением ждут встречи с представителями внеземной цивилизации. А вдруг они давно уже здесь? И по соглашению с правительством используют Землю как большой полигон для научных экспериментов? Тогда главное — не вмешиваться.

Дата мировой премьеры: 18 апреля 2014
Продолжительность: 01:40:40
Качество видео: BDRip
Перевод: Многоголосый закадровый, профессиональный
Озвучка / Автор перевода: ViruseProject
Субтитры: Отсутствуют
Видеокодек: AVC/H.264
Битрейт видео: ~4 580 Кбит/с
Размер кадра: 1280х536
Аудио 1: Русский AC3, 6 ch, 384 Кбит/с
Аудио 2: Английский DTS, 6 ch, 1510 Кбит/с-

MediaInfo:

General
Complete name : O:\Extraterrestrial.2014.L.BDRip.720p.mkv
Format : Matroska
File size : 4.64 GiB
Duration : 1h 40mn
Overall bit rate : 6 605 Kbps
Encoded date : UTC 2015-03-17 15:35:49
Writing application : mkvmerge v7.3.0 ('Nouages') 64bit built on Oct 22 2014 18:53:34
Writing library : libebml v1.3.0 + libmatroska v1.4.1
Video
ID : 1
Format : AVC
Format/Info : Advanced Video Codec
Format profile : [url=mailto:[email protected]][email protected][/url]
Format settings, CABAC : Yes
Format settings, ReFrames : 5 frames
Muxing mode : Container [email protected]
Codec ID : V_MPEG4/ISO/AVC
Duration : 1h 40mn
Bit rate : 4 580 Kbps
Nominal bit rate : 4 710 Kbps
Width : 1 280 pixels
Height : 536 pixels
Display aspect ratio : 2.35:1
Frame rate : 23.976 fps
Resolution : 8 bits
Colorimetry : 4:2:0
Scan type : Progressive
Bits/(Pixel*Frame) : 0.278
Stream size : 3.21 GiB (69%)
Writing library : x264 core 144 r2525 40bb568
Encoding settings : cabac=1 / ref=5 / deblock=1:0:0 / analyse=0x3:0x133 / me=umh / subme=7 / psy=1 / psy_rd=1.00:0.00 / mixed_ref=1 / me_range=16 / chroma_me=1 / trellis=1 / 8x8dct=1 / cqm=0 / deadzone=21,11 / fast_pskip=0 / chroma_qp_offset=-2 / threads=12 / lookahead_threads=2 / sliced_threads=0 / nr=0 / decimate=1 / interlaced=0 / bluray_compat=0 / constrained_intra=0 / bframes=3 / b_pyramid=2 / b_adapt=2 / b_bias=0 / direct=3 / weightb=1 / open_gop=0 / weightp=2 / keyint=250 / keyint_min=23 / scenecut=40 / intra_refresh=0 / rc_lookahead=50 / rc=2pass / mbtree=1 / bitrate=4710 / ratetol=1.0 / qcomp=0.60 / qpmin=0 / qpmax=69 / qpstep=4 / cplxblur=20.0 / qblur=0.5 / ip_ratio=1.40 / aq=1:1.00
Audio #1
ID : 2
Format : AC-3
Format/Info : Audio Coding 3
Codec ID : A_AC3
Duration : 1h 40mn
Bit rate mode : Constant
Bit rate : 384 Kbps
Channel(s) : 6 channels
Channel positions : Front: L C R, Surround: L R, LFE
Sampling rate : 48.0 KHz
Stream size : 276 MiB (6%)
Language : Russian
Audio #2
ID : 3
Format : DTS
Format/Info : Digital Theater Systems
Codec ID : A_DTS
Duration : 1h 40mn
Bit rate mode : Constant
Bit rate : 1 510 Kbps
Channel(s) : 6 channels
Channel positions : Front: L C R, Surround: L R, LFE
Sampling rate : 48.0 KHz
Resolution : 24 bits
Stream size : 1.06 GiB (23%)
Menu
00:00:00.000 : en:00:00:00.000
00:09:36.993 : en:00:09:36.993
00:36:06.706 : en:00:36:06.706
00:49:53.866 : en:00:49:53.866
01:11:51.015 : en:01:11:51.015
01:37:25.798 : en:01:37:25.798
-Скриншоты:
Яндекс.Метрика
Рейтинг@Mail.ru