[ Сегодня на трекере фрилич! Идет свободное скачивание без начисления Download ]

Воины неба и земли / Tian di ying xiong (Хэ Пин / Hae Pin) [2003 г., Боевик,Драма,Приключения, BDRip 720p] DVO +Original (Chi) + Sub (Rus.Eng)

 

Создавать темы 25-Мар-2015 05:03

-Воины неба и земли / Tian di ying xiong-- Производство: Китай, Гонконг
Год выпуска: 2003 г.
Жанр: Боевик,Драма,Приключения
Продолжительность: 01:59:50
Мировая премьера: 23 сентября 2003
Дата выхода DVD: 20 мая 2004, «Columbia/Sony»
Перевод: Профессиональный (двухголосый, закадровый) [R5]
Оригинальный аудиопоток: Китайский
Режиссер: Хэ Пин / Hae Pin-В ролях: Цзян Вэнь, Киити Накаи, Сюэци Ван, Чжао Вэй, Баген Хаси, Тао Хо, Линьян Лу, Дешун Ванг, Хайбинь Ли, Ирцзян Махепушен-Описание: Во времена династии Тан в Китае жил легендарный мастер меча Ли. Не было воина, равного ему. Но даже величайшие из людей смертны: отказавшись обратить свой клинок против народа, герой вызвал гнев императора и подписал себе приговор. Зная, что в Поднебесной нет того, кто мог бы сразить Ли в бою, правитель отправляет с заданием убить отступника японского мастера Лай Ки. Однако встретившись как враги, два великих воина вдруг обнаруживают, что жажда крови друг друга постепенно уступает место взаимоуважению, а суровые испытания, выпавшие на долю обоих, заставляют их сплотить силы перед лицом общей опасности...-Качество видео: BDRip (720p)
Контейнер: MKV
Видео кодек: H.264
Аудио кодек: AC3
Видео: AVC at 4546 Кбит/сек : 1280 x 534 at 23.976 fps
Аудио: AC-3 at 640 Кбит/сек : 6 каналов, 48,0 КГц : Русский
Аудио #2: AC-3 at 640 Кбит/сек : 6 каналов, 48,0 КГц : Китайский
Cубтитры: русские,английские (отключаются)

Media Info

Общее
Уникальный идентификатор : 241200699044317158958310090683713886053 (0xB575909C9BD0BE938F21E77646E49765)
Полное имя : D:\Раздача\загрузки\Warriors.of.Heaven.and.Earth.2003.720p.BluRay..mkv
Формат : Matroska
Версия формата : Version 2
Размер файла : 4,88 Гбайт
Продолжительность : 1 ч. 59 м.
Общий поток : 5828 Кбит/сек
Дата кодирования : UTC 2009-07-21 17:54:11
Программа кодирования : mkvmerge v2.9.5 ('Tu es le seul') built on Jun 7 2009 11:07:07
Библиотека кодирования : libebml v0.7.7 + libmatroska v0.8.1
Видео
Идентификатор : 1
Формат : AVC
Формат/Информация : Advanced Video Codec
Профиль формата : [email protected]
Параметр CABAC формата : Да
Параметр ReFrames формата : 8 кадров
Идентификатор кодека : V_MPEG4/ISO/AVC
Продолжительность : 1 ч. 59 м.
Битрейт : 4546 Кбит/сек
Ширина : 1280 пикселей
Высота : 534 пикселя
Соотношение сторон : 2,40:1
Режим частоты кадров : Постоянный
Частота кадров : 23,976 кадра/сек
Цветовое пространство : YUV
Субдискретизация насыщенности : 4:2:0
Битовая глубина : 8 бит
Тип развёртки : Прогрессивная
Бит/(Пиксели*Кадры) : 0.277
Размер потока : 3,71 Гбайт (76%)
Библиотека кодирования : x264 core 56 svn-667C
Настройки программы : cabac=1 / ref=5 / deblock=1:0:0 / analyse=0x3:0x133 / me=hex / subme=9 / brdo=1 / mixed_ref=1 / me_range=16 / chroma_me=1 / trellis=0 / 8x8dct=1 / cqm=2 / deadzone=21,11 / chroma_qp_offset=0 / threads=3 / nr=0 / decimate=1 / mbaff=0 / bframes=3 / b_pyramid=1 / b_adapt=1 / b_bias=0 / direct=1 / wpredb=1 / bime=1 / keyint=250 / keyint_min=25 / scenecut=40(pre) / rc=2pass / bitrate=4546 / ratetol=1.0 / rceq='blurCplx^(1-qComp)' / qcomp=0.60 / qpmin=10 / qpmax=51 / qpstep=4 / cplxblur=20.0 / qblur=0.5 / ip_ratio=1.40 / pb_ratio=1.30 / aq=1:0.7:15.0
Язык : English
Default : Да
Forced : Нет
Аудио #1
Идентификатор : 2
Формат : AC-3
Формат/Информация : Audio Coding 3
Расширение режима : CM (complete main)
Параметр Endianness формата : Big
Идентификатор кодека : A_AC3
Продолжительность : 1 ч. 59 м.
Вид битрейта : Постоянный
Битрейт : 640 Кбит/сек
Каналы : 6 каналов
Расположение каналов : Front: L C R, Side: L R, LFE
Частота : 48,0 КГц
Битовая глубина : 16 бит
Метод сжатия : С потерями
Размер потока : 549 Мбайт (11%)
Заголовок : Russian (MVO - R5)
Язык : Russian
Default : Да
Forced : Нет
Аудио #2
Идентификатор : 3
Формат : AC-3
Формат/Информация : Audio Coding 3
Расширение режима : CM (complete main)
Параметр Endianness формата : Big
Идентификатор кодека : A_AC3
Продолжительность : 1 ч. 59 м.
Вид битрейта : Постоянный
Битрейт : 640 Кбит/сек
Каналы : 6 каналов
Расположение каналов : Front: L C R, Side: L R, LFE
Частота : 48,0 КГц
Битовая глубина : 16 бит
Метод сжатия : С потерями
Размер потока : 549 Мбайт (11%)
Заголовок : Chinese
Язык : Chinese
Default : Нет
Forced : Нет
Текст #1
Идентификатор : 4
Формат : UTF-8
Идентификатор кодека : S_TEXT/UTF8
Идентификатор кодека/Информация : UTF-8 Plain Text
Язык : Russian
Default : Нет
Forced : Нет
Текст #2
Идентификатор : 5
Формат : ASS
Идентификатор кодека : S_TEXT/ASS
Идентификатор кодека/Информация : Advanced Sub Station Alpha
Метод сжатия : Без потерь
Заголовок : English
Язык : English
Default : Нет
Forced : Нет

Скриншоты

Яндекс.Метрика
Рейтинг@Mail.ru