Интерстеллар / Interstellar (2014) BDRip 1080p | IMAX Edition | 60fps

 

Создавать темы 22-Мар-2015 21:08

Интерстеллар / Interstellar
Год выпуска: 2014 г.
Жанр: Фантастика, Драма, Приключения
Страна: США, Великобритания, Канада
Режиссер: Кристофер Нолан
Продолжительность: 02:49:03
Перевод: Дублированный, Многоголосый закадровый, Одноголосый закадровый
В ролях:
Мэттью МакКонахи, Энн Хэтэуэй, Джессика Честейн, Маккензи Фой, Майкл Кейн, Дэвид Гяси, Уэс Бентли, Кейси Аффлек, Джон Литгоу, Мэтт Дэймон ...
Описание:
Когда засуха приводит человечество к продовольственному кризису, коллектив исследователей и учёных отправляется сквозь червоточину (которая предположительно соединяет области пространства-времени через большое расстояние) в путешествие, чтобы превзойти прежние ограничения для космических путешествий человека и переселить человечество на другую планету.
Формат видео: MKV
Качество видео: BDRip 1080p | 60fps
Видео кодек: H.264
Аудио кодек: AC3
Видео: 1920 x 1080 pixels, 59.940 fps, ~12.9 Mbps, [email protected]
Аудио#1: 48 kHz; AC3 Dolby Digital; 3/2 (L,C,R,l,r) + LFE ch; 384 kbps avg - дубляж [iTunes]
Аудио#2: 48 kHz; AC3 Dolby Digital; 3/2 (L,C,R,l,r) + LFE ch; 640 kbps avg - многоголосый закадровый [студия «Омикрон»]
Аудио#3: 48 kHz; AC3 Dolby Digital; 3/2 (L,C,R,l,r) + LFE ch; 640 kbps avg - авторский, одноголосый закадровый [Д.Есарев]
Аудио#4: 48 kHz; AC3 Dolby Digital; 3/2 (L,C,R,l,r) + LFE ch; 640 kbps avg - оригинал English
Cубтитры: русские
СЭМПЛ

Отчёт MediaInfo

General
Unique ID : 176277024454790020145597170911290723045 (0x849DB8514C123F879C6D9F191FD20AE5)
Complete name : E:\Video\60 fps\Интерстеллар\Interstellar 1080 60.mkv
Format : Matroska
Format version : Version 2
File size : 18.3 GiB
Duration : 2h 49mn
Overall bit rate : 15.5 Mbps
Encoded date : UTC 2015-03-20 19:10:18
Writing application : mkvmerge v3.4.0 ('Rapunzel') сборка от May 18 2010 22:32:11
Writing library : libebml v0.8.0 + libmatroska v0.9.0
Attachements : title.jpg
Video
ID : 1
Format : AVC
Format/Info : Advanced Video Codec
Format profile : [email protected]
Format settings, CABAC : Yes
Format settings, ReFrames : 4 frames
Codec ID : V_MPEG4/ISO/AVC
Duration : 2h 49mn
Bit rate : 12.9 Mbps
Width : 1 920 pixels
Height : 1 080 pixels
Display aspect ratio : 16:9
Frame rate mode : Constant
Frame rate : 60.000 fps
Original frame rate : 59.940 fps
Color space : YUV
Chroma subsampling : 4:2:0
Bit depth : 8 bits
Scan type : Progressive
Bits/(Pixel*Frame) : 0.104
Stream size : 15.3 GiB (83%)
Title : Rip by izomsk
Language : English
Default : Yes
Forced : No
Audio #1
ID : 2
Format : AC-3
Format/Info : Audio Coding 3
Mode extension : CM (complete main)
Format settings, Endianness : Big
Codec ID : A_AC3
Duration : 2h 49mn
Bit rate mode : Constant
Bit rate : 384 Kbps
Channel(s) : 6 channels
Channel positions : Front: L C R, Side: L R, LFE
Sampling rate : 48.0 KHz
Bit depth : 16 bits
Compression mode : Lossy
Delay relative to video : -1ms
Stream size : 464 MiB (2%)
Title : iTunes
Language : Russian
Default : No
Forced : Yes
Audio #2
ID : 3
Format : AC-3
Format/Info : Audio Coding 3
Mode extension : CM (complete main)
Format settings, Endianness : Big
Codec ID : A_AC3
Duration : 2h 49mn
Bit rate mode : Constant
Bit rate : 640 Kbps
Channel(s) : 6 channels
Channel positions : Front: L C R, Side: L R, LFE
Sampling rate : 48.0 KHz
Bit depth : 16 bits
Compression mode : Lossy
Delay relative to video : -1ms
Stream size : 774 MiB (4%)
Title : mvo
Language : Russian
Default : No
Forced : No
Audio #3
ID : 4
Format : AC-3
Format/Info : Audio Coding 3
Mode extension : CM (complete main)
Format settings, Endianness : Big
Codec ID : A_AC3
Duration : 2h 49mn
Bit rate mode : Constant
Bit rate : 640 Kbps
Channel(s) : 6 channels
Channel positions : Front: L C R, Side: L R, LFE
Sampling rate : 48.0 KHz
Bit depth : 16 bits
Compression mode : Lossy
Delay relative to video : -1ms
Stream size : 774 MiB (4%)
Title : avo
Language : Russian
Default : No
Forced : No
Audio #4
ID : 5
Format : AC-3
Format/Info : Audio Coding 3
Mode extension : CM (complete main)
Format settings, Endianness : Big
Codec ID : A_AC3
Duration : 2h 49mn
Bit rate mode : Constant
Bit rate : 640 Kbps
Channel(s) : 6 channels
Channel positions : Front: L C R, Side: L R, LFE
Sampling rate : 48.0 KHz
Bit depth : 16 bits
Compression mode : Lossy
Delay relative to video : -1ms
Stream size : 774 MiB (4%)
Language : English
Default : No
Forced : No
Text #1
ID : 6
Format : UTF-8
Codec ID : S_TEXT/UTF8
Codec ID/Info : UTF-8 Plain Text
Title : Forced
Language : Russian
Default : No
Forced : Yes
Text #2
ID : 7
Format : UTF-8
Codec ID : S_TEXT/UTF8
Codec ID/Info : UTF-8 Plain Text
Title : Full
Language : Russian
Default : No
Forced : No
Text #3
ID : 8
Format : UTF-8
Codec ID : S_TEXT/UTF8
Codec ID/Info : UTF-8 Plain Text
Title : SDH
Language : English
Default : No
Forced : No
Menu
00:00:00.000 : en:Chapter 01
00:09:35.283 : en:Chapter 02
00:17:12.281 : en:Chapter 03
00:25:00.707 : en:Chapter 04
00:35:45.101 : en:Chapter 05
00:42:16.825 : en:Chapter 06
00:50:19.558 : en:Chapter 07
00:54:47.784 : en:Chapter 08
00:58:59.369 : en:Chapter 09
01:06:14.971 : en:Chapter 10
01:17:28.018 : en:Chapter 11
01:25:31.960 : en:Chapter 12
01:34:31.957 : en:Chapter 13
01:46:14.659 : en:Chapter 14
01:55:34.510 : en:Chapter 15
02:02:14.327 : en:Chapter 16
02:12:56.802 : en:Chapter 17
02:20:53.778 : en:Chapter 18
02:35:12.052 : en:Chapter 19
02:43:59.830 : en:Chapter 20

Скриншоты

Яндекс.Метрика
Рейтинг@Mail.ru