Камеди Клаб / Комеди Клаб / Comedy Club (13.03.2015) DVB

 

Создавать темы 13-Мар-2015 16:29

- Камеди Клаб / Комеди Клаб / Comedy Club (13.03.2015) DVB - Телекомпания: ТНТ
Жанр: Юмор
Описание:
«Comedy Club» был создан в 2005 году командой КВН «Новые армяне», в состав которой входили Артур Джанибекян, Артак Гаспарян, Артур Тумасян, Арташес Саркисян, Гарик Мартиросян и другие. Его идея была задумана ещё в 2001 году, когда Арташес Саркисян, побывав в США, увидел местный «Comedy Club». Временами стали появляться новые участники «Comedy Club», в основном из КВН. 23 апреля 2005 года «Comedy Club» впервые вышел в эфир телеканала ТНТ. Рейтинги программы стали бить все рекорды и это приносило программе большие доходы, на которые они стали делать другие проекты. Впоследствии они создали свою продюсерскую компанию «Comedy Club Production». 15 апреля 2007 года на ТНТ был показан сотый выпуск программы. Регулярно выходят новые выпуски и другие проекты - например спецвыпуски на Первом канале, юмористические фестивали и продюсирование участниками «Comedy Club» проекты других телепередач. 23 апреля 2010 года «Comedy Club» вышло с новой музыкой и обновлённым оформлением. Также «Comedy Club» выходит на каналах ICTV, НТВ+ - Мир и Comedy TV.
Как всегда, Comedy Club собрал все самое смешное, чтобы оставаться самым крутым юмористическим шоу на телевидении. Камеры готовы? Музыканты готовы? Зрители готовы? Поехали!
Участники:
Гарик Мартиросян, Вадим Галыгин, Павел Воля, Тимур Батрутдинов, Александр Ревва, Гавр, Олег Верещагин, Дмитрий Сорокин, Зураб Матуa, Андрей Аверин, Алексей Лихницкий, Роман Юнусов, Антон Лирник, Андрей Молочный, Александр Незлобин, Дмитрий Хрусталёв, Васильев Виктор, Сергей Бессмертный, Александр Незлобин, Игорь Меерсон, Семён Слепаков, Михаил Галустян и др.
Продолжительность: ~ 00:47:26
Качество видео: DVB
Видеокодек: MPEG-TS
Битрейт видео: ~3775 kb/s
Размер кадра: 720 x 576
Аудио 1: MP2, 2ch., 192 kb/s
Аудио 2: MP2, 2ch., 192 kb/s

MI

Формат                                   : MPEG-TS
Размер файла                             : 1,45 Гбайт
Продолжительность                        : 47 м.
Режим общего битрейта                    : Переменный
Общий поток                              : 4379 Кбит/сек
Видео
Идентификатор                            : 256 (0x100)
Идентификатор меню                       : 1 (0x1)
Формат                                   : MPEG Video
Версия формата                           : Version 2
Профиль формата                          : [email protected]
Параметр BVOP формата                    : Да
Параметр матрицы формата                 : Выборочная
Параметр GOP формата                     : Variable
Идентификатор кодека                     : 2
Продолжительность                        : 47 м.
Вид битрейта                             : Переменный
Битрейт                                  : 3775 Кбит/сек
Максимальный битрейт                     : 15,0 Мбит/сек
Ширина                                   : 720 пикселей
Высота                                   : 576 пикселей
Соотношение сторон                       : 4:3
Частота кадров                           : 25,000 кадров/сек
Стандарт вещания                         : PAL
Цветовое пространство                    : YUV
Субдискретизация насыщенности            : 4:2:0
Битовая глубина                          : 8 бит
Тип развёртки                            : Прогрессивная
Порядок развёртки                        : Верхнее поле первое
Метод сжатия                             : С потерями
Бит/(Пиксели*Кадры)                      : 0.364
Временной код первого кадра              : 08:08:11:22
Оригинал временного кода                 : Group of pictures header
Размер потока                            : 1,25 Гбайт (86%)
Аудио #1
Идентификатор                            : 257 (0x101)
Идентификатор меню                       : 1 (0x1)
Формат                                   : MPEG Audio
Версия формата                           : Version 1
Профиль формата                          : Layer 2
Режим                                    : Dual mono
Расширение режима                        : MS Stereo
Идентификатор кодека                     : 3
Продолжительность                        : 47 м.
Вид битрейта                             : Постоянный
Битрейт                                  : 192 Кбит/сек
Каналы                                   : 2 канала
Частота                                  : 48,0 КГц
Метод сжатия                             : С потерями
Задержка видео                           : 8 мс.
Размер потока                            : 65,1 Мбайт (4%)
Язык                                     : Russian
Аудио #2
Идентификатор                            : 258 (0x102)
Идентификатор меню                       : 1 (0x1)
Формат                                   : MPEG Audio
Версия формата                           : Version 1
Профиль формата                          : Layer 2
Идентификатор кодека                     : 3
Продолжительность                        : 47 м.
Вид битрейта                             : Постоянный
Битрейт                                  : 192 Кбит/сек
Каналы                                   : 2 канала
Частота                                  : 48,0 КГц
Метод сжатия                             : С потерями
Задержка видео                           : 8 мс.
Размер потока                            : 65,1 Мбайт (4%)
Язык                                     : English
Меню
Идентификатор                            : 4096 (0x1000)
Идентификатор меню                       : 1 (0x1)
Продолжительность                        : 47 м.
Список                                   : 256 (0x100) (MPEG Video) / 257 (0x101) (MPEG Audio, Russian) / 258 (0x102) (MPEG Audio, English)
Язык                                     :  / Russian / English
Название сервиса                         : Service01
Поставщик сервиса                        : FFmpeg
Тип сервиса                              : digital television
Скриншоты:
Яндекс.Метрика
Рейтинг@Mail.ru