Мы такие, какие есть / We Are What We Are (2013 ,Ужасы, триллер, драма) BDRip 720p | L2

 

Создавать темы 10-Мар-2015 22:24

-Мы такие, какие есть / We Are What We Are -Информация о фильме
Название: Мы такие, какие есть
Оригинальное название: We Are What We Are
Год выпуска: 2013
Жанр: Ужасы, триллер, драма
Режиссер: Джим Микл
В ролях: Кэсси ДеПайва, Лорен Рейто, Джулия Гарнер, Эмбир Чилдерс, Джек Гор, Билл Сейдж, Келли МакГиллис, Уайатт Расселл, Майкл Паркс, Аннемари Лоулесс
О фильме:Казалось бы, обычная и доброжелательная семья Паркеров, всегда державшаяся особняком от остальных жителей городка, не могла бы привлечь к себе особого внимания, однако, в тихом омуте черти водятся. За закрытыми дверями, вспыльчивый глава семейства Фрэнк правит балом и хранит семейные секреты от посторонних глаз. Секреты, которые заставят содрогнуться от ужаса любого, кто прикоснется к ним...

Страна: США, Франция
Студия: Belladonna Productions, Memento Films International, Paradise City, Uncorked Productions
Продолжительность: 01:45:43
Перевод: Любительский двухголосый
Файл
Кодек: x264
Качество: BDRip 720p
Видео: MPEG-4 AVC, 4418 Кбит/с, 1280x536, 23.976 кадр/с
Аудио #1: Русский (AC3, 6 ch, 448 Кбит/с) / Любительский двухголосый (DeadSno & den904)
Аудио #2: Английский (AC3, 6 ch, 448 Кбит/с)
Субтитры: Русские, английские
Семпл

MI

Format : Matroska
Format version : Version 2
File size : 3.89 GiB
Duration : 1h 45mn
Overall bit rate : 5 300 Kbps
Encoded date : UTC 2015-03-06 22:13:36
Writing application : mkvmerge v5.5.0 ('Healer') built on Apr 6 2012 21:43:24
Writing library : libebml v1.2.3 + libmatroska v1.3.0
Video
ID : 1
Format : AVC
Format/Info : Advanced Video Codec
Format profile : [email protected]
Format settings, CABAC : Yes
Format settings, ReFrames : 12 frames
Codec ID : V_MPEG4/ISO/AVC
Duration : 1h 45mn
Bit rate : 4 418 Kbps
Width : 1 280 pixels
Height : 536 pixels
Display aspect ratio : 2.40:1
Frame rate mode : Constant
Frame rate : 23.976 fps
Color space : YUV
Chroma subsampling : 4:2:0
Bit depth : 8 bits
Scan type : Progressive
Bits/(Pixel*Frame) : 0.269
Stream size : 3.16 GiB (81%)
Title : We Are What We Are (2013)
Writing library : x264 core 138 r2356 a1d3d17
Encoding settings : cabac=1 / ref=12 / deblock=1:-3:-3 / analyse=0x3:0x113 / me=umh / subme=10 / psy=1 / psy_rd=1.00:0.05 / mixed_ref=1 / me_range=32 / chroma_me=1 / trellis=2 / 8x8dct=1 / cqm=0 / deadzone=21,11 / fast_pskip=0 / chroma_qp_offset=-2 / threads=18 / lookahead_threads=1 / sliced_threads=0 / nr=0 / decimate=1 / interlaced=0 / bluray_compat=0 / constrained_intra=0 / bframes=5 / b_pyramid=2 / b_adapt=2 / b_bias=0 / direct=3 / weightb=1 / open_gop=0 / weightp=2 / keyint=250 / keyint_min=23 / scenecut=40 / intra_refresh=0 / rc=2pass / mbtree=0 / bitrate=4418 / ratetol=1.0 / qcomp=0.70 / qpmin=0 / qpmax=69 / qpstep=4 / cplxblur=20.0 / qblur=0.5 / ip_ratio=1.40 / pb_ratio=1.30 / aq=2:1.00
Language : English
Default : Yes
Forced : No
Audio #1
ID : 2
Format : AC-3
Format/Info : Audio Coding 3
Mode extension : CM (complete main)
Format settings, Endianness : Big
Codec ID : A_AC3
Duration : 1h 45mn
Bit rate mode : Constant
Bit rate : 448 Kbps
Channel count : 6 channels
Channel positions : Front: L C R, Side: L R, LFE
Sampling rate : 48.0 KHz
Bit depth : 16 bits
Compression mode : Lossy
Stream size : 337 MiB (8%)
Title : Russian
Language : Russian
Default : Yes
Forced : No
Audio #2
ID : 3
Format : AC-3
Format/Info : Audio Coding 3
Mode extension : CM (complete main)
Format settings, Endianness : Big
Codec ID : A_AC3
Duration : 1h 45mn
Bit rate mode : Constant
Bit rate : 448 Kbps
Channel count : 6 channels
Channel positions : Front: L C R, Side: L R, LFE
Sampling rate : 48.0 KHz
Bit depth : 16 bits
Compression mode : Lossy
Stream size : 337 MiB (8%)
Title : English
Language : English
Default : No
Forced : No
Text #1
ID : 4
Format : UTF-8
Codec ID : S_TEXT/UTF8
Codec ID/Info : UTF-8 Plain Text
Title : Russian
Language : Russian
Default : No
Forced : No
Text #2
ID : 5
Format : UTF-8
Codec ID : S_TEXT/UTF8
Codec ID/Info : UTF-8 Plain Text
Title : English
Language : English
Default : No
Forced : No
Menu
00:00:00.000 : en:00:00:00.000
00:05:21.363 : en:00:05:21.363
00:11:58.718 : en:00:11:58.718
00:16:00.960 : en:00:16:00.960
00:22:14.333 : en:00:22:14.333
00:29:52.791 : en:00:29:52.791
00:37:33.251 : en:00:37:33.251
00:41:58.516 : en:00:41:58.516
00:46:43.801 : en:00:46:43.801
00:53:49.226 : en:00:53:49.226
00:59:16.553 : en:00:59:16.553
01:09:25.161 : en:01:09:25.161
01:15:56.552 : en:01:15:56.552
01:19:59.795 : en:01:19:59.795
01:24:06.041 : en:01:24:06.041
01:31:22.477 : en:01:31:22.477
01:34:53.688 : en:01:34:53.688
01:40:10.004 : en:01:40:10.004

Скриншоты

Яндекс.Метрика
Рейтинг@Mail.ru