Тамарка (2013) WEB-DL [H.264/720p] (серии 1-4 из 4)

 

Создавать темы 09-Мар-2015 02:08

-Тамарка (2013) WEB-DL [H.264/720p] (серии 1-4 из 4)- Производство: Россия / СТН-фильм
Жанр: мелодрама
Режиссер: Екатерина Шагалова
Актеры: Екатерина Гусева, Игорь Петренко, Любовь Толкалина, Алексей Барабаш, Владимир Ильин, Татьяна Догилева, Валентина Светлова (II), Дарья Екамасова, Олег Тополянский, Кирилл Гребенщиков, Михаил Тарабукин и др.
Описание фильма:
Тамара - сотрудница частной галереи, которую обвиняют в краже драгоценностей, принадлежащих известному коллекционеру Дубровскому. Исполненный праведного гнева обладатель дорогих побрякушек, пообщавшись с Тамарой, вскоре понимает, что перед ним скорее жертва аферы, нежели коварная злодейка. Более того, Дубровский влюбляется в похитительницу, и та отвечает ему взаимностью. Но на пути к счастью, как водится, возникнут препятствия: в Тамару давно и безнадежно влюблён владелец галереи, от благосклонности которого женщина некоторым образом зависит, а у Дубровского есть жена, и она, естественно, не в восторге от сложившейся ситуации.
Дата российской премьеры: 6 марта 2015 года
Продолжительность: ~ 00:50:00 серия
Качество видео: WEB-DL
Видеокодек: MPEG-4 AVC/H.264
Битрейт видео: ~ 3100 Кбит/с
Размер кадра: 1280x720
Аудиокодек: AC3 2.0
Битрейт аудио: 192 Кбит/с

Mediainfo:

Общее
Уникальный идентификатор                 : 203452635547420424523477603760498689377 (0x990F8D63F5EB1EA8B6EE163B46364561)
Полное имя                               : D:\NNM-Club\[NNM-Club.me]_Тамарка\Тамарка - 01 серия.mkv
Формат                                   : Matroska
Версия формата                           : Version 2
Размер файла                             : 1,22 Гбайт
Продолжительность                        : 51 м.
Режим общего битрейта                    : Переменный
Общий поток                              : 3404 Кбит/сек
Название фильма                          : Tamarka.(01.seriya.iz.04).2013.WEB-DL.(720p).MediaClub
Дата кодирования                         : UTC 2015-03-06 20:18:17
Программа кодирования                    : mkvmerge v5.8.0 ('No Sleep / Pillow') built on Sep  2 2012 15:37:04
Библиотека кодирования                   : libebml v1.2.3 + libmatroska v1.3.0
Видео
Идентификатор                            : 1
Формат                                   : AVC
Формат/Информация                        : Advanced Video Codec
Профиль формата                          : [url=mailto:[email protected]][email protected][/url]
Параметр CABAC формата                   : Да
Параметр ReFrames формата                : 4 кадра
Идентификатор кодека                     : V_MPEG4/ISO/AVC
Продолжительность                        : 51 м.
Вид битрейта                             : Переменный
Битрейт                                  : 3145 Кбит/сек
Максимальный битрейт                     : 40,0 Мбит/сек
Ширина                                   : 1280 пикселей
Высота                                   : 720 пикселей
Соотношение сторон                       : 16:9
Режим частоты кадров                     : Постоянный
Частота кадров                           : 50,000 кадров/сек
Цветовое пространство                    : YUV
Субдискретизация насыщенности            : 4:2:0
Битовая глубина                          : 8 бит
Тип развёртки                            : Прогрессивная
Бит/(Пиксели*Кадры)                      : 0.068
Размер потока                            : 1,12 Гбайт (92%)
Default                                  : Да
Forced                                   : Да
Аудио
Идентификатор                            : 2
Формат                                   : AC-3
Формат/Информация                        : Audio Coding 3
Расширение режима                        : CM (complete main)
Параметр Endianness формата              : Big
Идентификатор кодека                     : A_AC3
Продолжительность                        : 51 м.
Вид битрейта                             : Постоянный
Битрейт                                  : 192 Кбит/сек
Каналы                                   : 2 канала
Расположение каналов                     : Front: L R
Частота                                  : 48,0 КГц
Битовая глубина                          : 16 бит
Метод сжатия                             : С потерями
Размер потока                            : 70,2 Мбайт (6%)
Язык                                     : Russian
Default                                  : Да
Forced                                   : Да
Скриншоты:
Яндекс.Метрика
Рейтинг@Mail.ru