[ Сегодня на трекере фрилич! Идет свободное скачивание без начисления Download ]

Развод по-французски / L'ex de ma vie (Дороте Себба / Dorothée Sebbagh) [2014 г., комедия, мелодрама, WEB-DLRip] Dub (iTunes)

 

Создавать темы 06-Мар-2015 06:39

--Развод по-французски / L'ex de ma vie--«Конец - это только начало»-- Производство: Франция, Италия, Les films du 24, TF1 Droits Audiovisuels, Cattleya
Год выпуска: 2014 г.
Жанр: комедия, мелодрама
Продолжительность: 01:19:00--Мировая премьера: 17 июня 2014
Российская премьера: 5 февраля 2015, «Люксор»--Перевод: Профессиональный (полное дублирование) [iTunes]--Режиссер: Дороте Себба / Dorothée Sebbagh--В ролях: Жеральдин Накаш, Ким Росси Стюарт, Паскаль Демолон, Софи Каттани, Катрин Жакоб, Жерар Дюбуш, Николь Феррони, Нора Хамзави, Эрик Фрей, Айса Буссетта--Описание: Ариан и Нино никогда не были обычной парой. Они жили счастливо, вопреки обычаям: женитьба в джинсах, без свадебной церемонии. Нино — преподаватель начальной школы в маленькой деревушке недалеко от Рима, Ариан путешествует по миру в качестве концертирующей скрипачки. Все хорошо пока их принципиальные различия не взяли верх над их любовью.
Два года спустя, Ариан поняла, что хочет выйти замуж и переехать в Америку с известным дирижером по имени Кристен, но для бракоразводного дела в Италии требуется 5 лет, в то время как во Франции 8 дней. Ариан предлагает Нино развестись. Он согласен лишь с одним условием: они проводят эти 8 дней в Париже, вместо медового месяца, которого у них никогда не было…--Качество видео: WEB-DLRip
Контейнер: AVI
Видео кодек: XviD
Аудио кодек: AC3
Видео: 720x304 (2.37:1), 24 fps, XviD build 50 ~2060 kbps avg, 0.39 bit/pixel
Аудио: 48 kHz, AC3 Dolby Digital, 3/2 (L,C,R,l,r) + LFE ch, ~384 kbps
Cубтитры: отсутствуют

Media Info

Общее
Полное имя : H:\Torrent2\Razvod.P0-Fr4ncuzski.2014.D.WEB-DLRip.1400MB.avi
Формат : AVI
Формат/Информация : Audio Video Interleave
Размер файла : 1,37 Гбайт
Продолжительность : 1 ч. 19 м.
Общий поток : 2454 Кбит/сек
Программа кодирования : VirtualDubMod 1.5.10.2 (build 2540/release)
Библиотека кодирования : VirtualDubMod build 2540/release
Видео
Идентификатор : 0
Формат : MPEG-4 Visual
Профиль формата : Advanced [email protected]
Параметр BVOP формата : 2
Параметр QPel формата : Нет
Параметр GMC формата : Без точки перехода
Параметр матрицы формата : Default (MPEG)
Идентификатор кодека : XVID
Идентификатор кодека/Подсказка : XviD
Продолжительность : 1 ч. 19 м.
Битрейт : 2061 Кбит/сек
Ширина : 720 пикселей
Высота : 304 пикселя
Соотношение сторон : 2,35:1
Частота кадров : 24,000 кадра/сек
Цветовое пространство : YUV
Субдискретизация насыщенности : 4:2:0
Битовая глубина : 8 бит
Тип развёртки : Прогрессивная
Метод сжатия : С потерями
Бит/(Пиксели*Кадры) : 0.392
Размер потока : 1,15 Гбайт (84%)
Библиотека кодирования : XviD 1.2.1 (UTC 2008-12-04)
Аудио
Идентификатор : 1
Формат : AC-3
Формат/Информация : Audio Coding 3
Расширение режима : CM (complete main)
Параметр Endianness формата : Big
Идентификатор кодека : 2000
Продолжительность : 1 ч. 19 м.
Вид битрейта : Постоянный
Битрейт : 384 Кбит/сек
Каналы : 6 каналов
Расположение каналов : Front: L C R, Side: L R, LFE
Частота : 48,0 КГц
Битовая глубина : 16 бит
Метод сжатия : С потерями
Размер потока : 219 Мбайт (16%)
Выравнивание : Разделение по промежуткам
Продолжительность промежутка : 42 мс. (1,00 видеокадр)
Время предзагрузки промежутка : 500 мс.

Скриншоты

Трейлер
Яндекс.Метрика
Рейтинг@Mail.ru