Шанхайские рыцари / Shanghai Knights (Дэвид Добкин / David Dobkin) [2003 г., Боевик, комедия, приключения, вестерн, BDRip-AVC] AVO (Гаврилов, Рудой) + MVO (R5, ТНТ) + Dub

 

Создавать темы 25-Фев-2015 09:40

Шанхайские рыцари / Shanghai Knights
Год выпуска: 2003
Производство: США, Гонконг
Жанр: Боевик, комедия, приключения, вестерн
Продолжительность: 1:54:20
Перевод: Авторский (одноголосый, закадровый) Гаврилов, Рудой
Перевод 2: Профессиональный (многоголосый, закадровый) R5, ТНТ
Перевод 3: Профессиональный (полное дублирование)
Режиссер: Дэвид Добкин / David Dobkin
В ролях: Джеки Чан, Оуэн Уилсон, Фэнн Вонг, Аарон Джонсон, Донни Йен, Эйдан Джиллен, Том Фишер, Донни Ен, Оливер Коттон, Элисон Кинг, Константин Грегори, Анна-Луиза Плауман, Джорджина Чэпман, Джон Оуенс, Ричард Бреммер, Ким Чан, Джемма Джонс, Мэтт Хилл
Описание: После приручения Дикого Запада в комедии «Шанхайский полдень», Чон Ванг и Рой О`Баннон — опять в седле, но на сей раз совсем в другом месте — они оказались в цивилизованном Лондоне в продолжении этого фильма, «Шанхайских Рыцарях». Когда китайский предатель убивает отца Чона и убегает в Англию, Чон и Рой отправляются за ним в Лондон с планами мести. Сестра Чона, Лин, хочет того же, и раскрывает всемирный заговор против королевской семьи, но почти никто не верит ей. С помощью любезного инспектора Скотланд Ярда и 10-летнего уличного мальчишки, акробатический Чон дает Викторианской Англии хороший пинок, поскольку он одновременно пытается мстить за смерть своего отца и держать склонного к флирту Роя подальше от сестры.
Качество видео: BDRip-AVC
Контейнер: MKV
Видео кодек: H.264
Аудио кодек: AC3
Видео: 4 421 Kbps, 1040*444 pixels, 2.35:1, 23.976 fps
Аудио : AC3, 448 Kbps, 6 channels, 48.0 KHz, 16 bits - Гаврилов
Аудио #2: AC3, 448 Kbps, 6 channels, 48.0 KHz, 16 bits - Рудой
Аудио #3: AC3, 384 Kbps, 6 channels, 48.0 KHz, 16 bits - ТНТ
Аудио #4: AC3, 384 Kbps, 6 channels, 48.0 KHz, 16 bits - R5
Аудио #5: AC3, 192 Kbps, 2 channels, 48.0 KHz, 16 bits - дубляж

Media Info

I:\РАЗДАЧИ\Шанхайские рыцари.2003.BDRip-AVC.mkv
General
Unique ID : 181547392155238834126815033613961921591 (0x8894C181DB8730A2A51B14F8BEAC0437)
Complete name : I:\РАЗДАЧИ\Шанхайские рыцари.2003.BDRip-AVC.mkv
Format : Matroska
Format version : Version 4 / Version 2
File size : 5.01 GiB
Duration : 1h 54mn
Overall bit rate : 6 274 Kbps
Encoded date : UTC 2015-02-24 19:17:55
Writing application : mkvmerge v6.1.0 ('Old Devil') built on Mar 4 2013 09:10:42
Writing library : libebml v1.3.0 + libmatroska v1.4.0
Video #1
ID : 1
Format : AVC
Format/Info : Advanced Video Codec
Format profile : [email protected]
Format settings, CABAC : Yes
Format settings, ReFrames : 16 frames
Codec ID : V_MPEG4/ISO/AVC
Duration : 1h 54mn
Bit rate : 4 421 Kbps
Width : 1 040 pixels
Height : 444 pixels
Display aspect ratio : 2.35:1
Frame rate : 23.976 fps
Color space : YUV
Chroma subsampling : 4:2:0
Bit depth : 8 bits
Scan type : Progressive
Bits/(Pixel*Frame) : 0.399
Stream size : 3.43 GiB (68%)
Writing library : x264 core 130 r2273 b3065e6
Encoding settings : cabac=1 / ref=16 / deblock=1:-1:-1 / analyse=0x3:0x133 / me=umh / subme=11 / psy=1 / psy_rd=1.00:0.15 / mixed_ref=1 / me_range=32 / chroma_me=1 / trellis=2 / 8x8dct=1 / cqm=0 / deadzone=21,11 / fast_pskip=0 / chroma_qp_offset=-3 / threads=12 / lookahead_threads=2 / sliced_threads=0 / nr=0 / decimate=0 / interlaced=0 / bluray_compat=0 / constrained_intra=0 / bframes=8 / b_pyramid=2 / b_adapt=2 / b_bias=0 / direct=3 / weightb=1 / open_gop=0 / weightp=2 / keyint=250 / keyint_min=23 / scenecut=40 / intra_refresh=0 / rc=2pass / mbtree=0 / bitrate=4421 / ratetol=1.0 / qcomp=0.60 / qpmin=0 / qpmax=69 / qpstep=4 / cplxblur=20.0 / qblur=0.5 / ip_ratio=1.40 / pb_ratio=1.30 / aq=1:1.00
Audio #2
ID : 2
Format : AC-3
Format/Info : Audio Coding 3
Mode extension : CM (complete main)
Codec ID : A_AC3
Duration : 1h 54mn
Bit rate mode : Constant
Bit rate : 448 Kbps
Channel(s) : 6 channels
Channel positions : Front: L C R, Side: L R, LFE
Sampling rate : 48.0 KHz
Bit depth : 16 bits
Compression mode : Lossy
Stream size : 366 MiB (7%)
Title : Гаврилов
Language : Russian
Audio #3
ID : 3
Format : AC-3
Format/Info : Audio Coding 3
Mode extension : CM (complete main)
Codec ID : A_AC3
Duration : 1h 54mn
Bit rate mode : Constant
Bit rate : 448 Kbps
Channel(s) : 6 channels
Channel positions : Front: L C R, Side: L R, LFE
Sampling rate : 48.0 KHz
Bit depth : 16 bits
Compression mode : Lossy
Stream size : 366 MiB (7%)
Title : Рудой
Language : Russian
Audio #4
ID : 4
Format : AC-3
Format/Info : Audio Coding 3
Mode extension : CM (complete main)
Codec ID : A_AC3
Duration : 1h 54mn
Bit rate mode : Constant
Bit rate : 384 Kbps
Channel(s) : 6 channels
Channel positions : Front: L C R, Side: L R, LFE
Sampling rate : 48.0 KHz
Bit depth : 16 bits
Compression mode : Lossy
Stream size : 314 MiB (6%)
Title : ТНТ
Language : Russian
Audio #5
ID : 5
Format : AC-3
Format/Info : Audio Coding 3
Mode extension : CM (complete main)
Codec ID : A_AC3
Duration : 1h 54mn
Bit rate mode : Constant
Bit rate : 384 Kbps
Channel(s) : 6 channels
Channel positions : Front: L C R, Side: L R, LFE
Sampling rate : 48.0 KHz
Bit depth : 16 bits
Compression mode : Lossy
Stream size : 314 MiB (6%)
Title : R5
Language : Russian
Audio #6
ID : 6
Format : AC-3
Format/Info : Audio Coding 3
Mode extension : CM (complete main)
Codec ID : A_AC3
Duration : 1h 54mn
Bit rate mode : Constant
Bit rate : 192 Kbps
Channel(s) : 2 channels
Channel positions : Front: L R
Sampling rate : 48.0 KHz
Bit depth : 16 bits
Compression mode : Lossy
Stream size : 157 MiB (3%)
Title : дубляж
Language : Russian

log x.264

x264 [info]: frame I:1649  Avg QP:17.03  size: 88222
x264 [info]: frame P:37721 Avg QP:19.27 size: 37622
x264 [info]: frame B:125125 Avg QP:21.16 size: 17785
x264 [info]: consecutive B-frames: 2.6% 3.9% 8.6% 28.2% 11.6% 33.9% 4.0% 5.1% 2.0%
x264 [info]: mb I I16..4: 19.0% 56.9% 24.1%
x264 [info]: mb P I16..4: 1.9% 20.4% 2.6% P16..4: 24.6% 30.8% 13.7% 2.6% 0.2% skip: 3.1%
x264 [info]: mb B I16..4: 0.2% 3.7% 0.3% B16..8: 37.2% 24.4% 5.9% direct:10.2% skip:18.0% L0:43.2% L1:41.1% BI:15.7%
x264 [info]: 8x8 transform intra:81.3% inter:51.8%
x264 [info]: direct mvs spatial:98.1% temporal:1.9%
x264 [info]: coded y,uvDC,uvAC intra: 94.7% 84.6% 60.0% inter: 49.5% 29.0% 9.4%
x264 [info]: i16 v,h,dc,p: 35% 5% 23% 36%
x264 [info]: i8 v,h,dc,ddl,ddr,vr,hd,vl,hu: 10% 8% 13% 9% 13% 12% 12% 11% 13%
x264 [info]: i4 v,h,dc,ddl,ddr,vr,hd,vl,hu: 12% 7% 6% 9% 15% 14% 13% 11% 12%
x264 [info]: i8c dc,h,v,p: 38% 24% 21% 17%
x264 [info]: Weighted P-Frames: Y:15.0% UV:9.5%
x264 [info]: ref P L0: 40.3% 11.5% 16.5% 7.3% 5.5% 4.2% 3.4% 2.1% 1.7% 1.5% 1.3% 1.2% 1.0% 0.9% 0.9% 0.7%
x264 [info]: ref B L0: 69.7% 11.5% 5.8% 3.1% 2.3% 1.8% 1.5% 0.9% 0.8% 0.7% 0.6% 0.5% 0.5% 0.3% 0.1%
x264 [info]: ref B L1: 91.9% 8.1%
x264 [info]: kb/s:4419.26

Скриншоты

Яндекс.Метрика
Рейтинг@Mail.ru