Соучастник / Collateral (2004,Триллер, драма, криминал) SATRip

 

Создавать темы 24-Фев-2015 16:32

Страна: США
Жанр: Триллер, драма, криминал
Год выпуска: 2004
Продолжительность: 01:48:24
Перевод: Профессиональный (многоголосый, закадровый) СТС
Cубтитры: нет
Режиссер: Майкл Манн / Michael Mann
В ролях: Том Круз, Джейми Фокс, Джада Пинкетт Смит, Марк Руффало, Джейсон Стэтхэм, Питер Берг, Брюс МакГилл, Ирма П. Холл, Бэрри, Шебака Хенли, Ричард Т. Джонс, Клеа Скотт
Описание: Для таксиста Макса очередной рабочий вечер открылся радостным знакомством с красоткой, а закончился настоящим кошмаром. К нему подсел странный, неразговорчивый человек, предложивший за 700 долларов доставить его по пяти разным адресам. Когда же Макс узнает, что хмурый Винсент – наемный убийца, который выполняет заказы по всему городу и становится свидетелем первого преступления, то он на свой страх и риск пытается предотвратить новые убийства и вступает с киллером в опасную игру... Ведь в списке киллера последним значится сам Макс...
Качество видео: SATRip [Open Matte]
Формат видео: AVI
Видео: 720x400 (1.80:1), 25 fps, XviD build 73 ~1667 kbps avg, 0.23 bit/pixel
Аудио: 48 kHz, AC3 Dolby Digital, 2/0 (L,R) ch, ~256 kbps

MI

S0u4aSn!k.P.2004.SATRip1.46.GB.Deadmauvlad.avi
Формат : AVI
Формат/Информация : Audio Video Interleave
Размер файла : 1,46 Гбайт
Продолжительность : 1 ч. 48 м.
Общий поток : 1933 Кбит/сек
Название фильма : S0u4aSn!k.P.2004.SATRip1.46.GB.Deadmauvlad
Режиссёр : Deadmauvlad
Жанр : боевик, триллер, криминал
Программа кодирования : VirtualDubMod 1.5.10.3 | www.virtualdub-fr.org || (build 2550/release)
Формат оригинала/Имя : Фильм
Правообладатель : Goldenshara
Видео
Идентификатор : 0
Формат : MPEG-4 Visual
Профиль формата : Advanced [email protected]
Параметр BVOP формата : 1
Параметр QPel формата : Нет
Параметр GMC формата : Без точки перехода
Параметр матрицы формата : Выборочная
Идентификатор кодека : XVID
Идентификатор кодека/Подсказка : XviD
Продолжительность : 1 ч. 48 м.
Битрейт : 1667 Кбит/сек
Ширина : 720 пикселей
Высота : 400 пикселей
Соотношение сторон : 16:9
Частота кадров : 25,000 кадров/сек
Цветовое пространство : YUV
Субдискретизация насыщенности : 4:2:0
Битовая глубина : 8 бит
Тип развёртки : Прогрессивная
Метод сжатия : С потерями
Бит/(Пиксели*Кадры) : 0.232
Размер потока : 1,26 Гбайт (86%)
Библиотека кодирования : XviD 73
Аудио
Идентификатор : 1
Формат : AC-3
Формат/Информация : Audio Coding 3
Расширение режима : CM (complete main)
Параметр Endianness формата : Big
Идентификатор кодека : 2000
Продолжительность : 1 ч. 48 м.
Вид битрейта : Постоянный
Битрейт : 256 Кбит/сек
Каналы : 2 канала
Расположение каналов : Front: L R
Частота : 48,0 КГц
Битовая глубина : 16 бит
Метод сжатия : С потерями
Размер потока : 199 Мбайт (13%)
Выравнивание : Разделение по промежуткам
Продолжительность промежутка : 40 мс. (1,00 видеокадр)
Время предзагрузки промежутка : 500 мс.

Скриншоты

Яндекс.Метрика
Рейтинг@Mail.ru