Флэш / The Flash / Сезон: 1 / Серии: 14 из 23 (Дэвид Наттер / David Nutter) [2014 г., фантастика, фэнтези, боевик, драма, приключения, WEB-DLRip] MVO (LostFilm) + Sub (Rus, Eng) [обновляемая]

 

Создавать темы 23-Фев-2015 05:12

Флэш / The Flash- Русское название: Флэш
Оригинальное название: The Flash
Страна: США
Год выпуска: 2014
Жанр: фантастика, фэнтези, боевик, драма, приключения, ...-Озвучка: Студия
Перевод: Многоголосый закадровый, профессиональный-Режиссер: Дэвид Наттер / David Nutter, Джесси Уарн / Jesse Warn
В главных ролях: Грант Гастин, Кэндис Паттон, Рик Коснетт, Даниэль Панабэйкер, Карлос Вальдес, Томас Кэвэна, Джесси Л. Мартин, Джон Уэсли Шипп, Стивен Амелл, Ёсиэ Бэнкрофт-Описание фильма:
Из-за несчастного случая судмедэксперт Барри Аллен приобретает способность передвигаться с невероятной скоростью. Этот случай делает из него супергероя, которым он всегда мечтал стать. Защищая город, как ангел-хранитель, делая невозможное, спасая жизни со скоростью вспышки, по подсказке Оливера Куина (Стрела), он берёт себе и соответствующее имя - Флэш.
Сериал основан на супергерое DC Comics по имени Флэш (Барри Аллен), борце с преступностью в костюме, который был создан Робертом Кнайгером, Джоном Брумом и Кармином Инфантино. Является спин-оффом сериала «Стрела» и происходит в той же вселенной.-Дата мировой премьеры: 7 октября 2014-Сезон: 1
Серии: 14 из 23 серий
Продолжительность: ~ 00:43:00 серия-
Качество видео: WEB-DLRip
Контейнер: AVI
Видео кодек: XviD
Аудио кодек: MP3
Видео: MPEG-4 Visual at 1562 Кбит/сек: 720 x 400 (1.800) at 23.976 fps, 0.23 Бит/Пиксели
Аудио: MPEG Audio at 192 Кбит/сек: 2 канала, 48,0 КГц |LostFilm|
Cубтитры: русские, английские
Формат: softsub (SRT)
- -

Список серий:

  • Пилот (Pilot)
  • Самый быстрый человек на Земле (Fastest Man Alive)
  • То, от чего нельзя убежать (Things You Can't Outrun)
  • Да наступит беспредел (Going Rogue)
  • Пластик (Plastique)
  • Рождение Флэша (The Flash Is Born)
  • Отключение энергии (Power Outage)
  • Флэш против Стрелы (Flash vs. Arrow)
  • Человек в желтом (The Man in the Yellow Suit)
  • Месть негодяев (Revenge of the Rogues)
  • Шум и ярость (The Sound and the Fury)
  • Без ума от тебя (Crazy for You)
  • Ядерный человек (The Nuclear Man)
  • Осадок (Fallout)
-

MediaInfo:

Общее
Полное имя : E:\_Сериалы\_Сериалы\Флэш\The Flash.s01.LostFilm\The.Flash.S01E01.rus.LostFilm.TV.avi
Формат : AVI
Формат/Информация : Audio Video Interleave
Размер файла : 564 Мбайт
Продолжительность : 44 м.
Режим общего битрейта : Переменный
Общий поток : 1763 Кбит/сек
Программа кодирования : Nandub v1.0rc2
Библиотека кодирования : Nandub build 1853/release
Видео
Идентификатор : 0
Формат : MPEG-4 Visual
Профиль формата : Advanced [email protected]
Параметр BVOP формата : Нет
Параметр QPel формата : Нет
Параметр GMC формата : Без точки перехода
Параметр матрицы формата : Default (H.263)
Идентификатор кодека : XVID
Идентификатор кодека/Подсказка : XviD
Продолжительность : 44 м.
Битрейт : 1562 Кбит/сек
Ширина : 720 пикселей
Высота : 400 пикселей
Соотношение сторон : 16:9
Частота кадров : 23,976 кадра/сек
Цветовое пространство : YUV
Субдискретизация насыщенности : 4:2:0
Битовая глубина : 8 бит
Тип развёртки : Прогрессивная
Метод сжатия : С потерями
Бит/(Пиксели*Кадры) : 0.226
Размер потока : 499 Мбайт (89%)
Библиотека кодирования : XviD 1.2.1 (UTC 2008-12-04)
Аудио
Идентификатор : 1
Формат : MPEG Audio
Версия формата : Version 1
Профиль формата : Layer 3
Режим : Joint stereo
Расширение режима : MS Stereo
Идентификатор кодека : 55
Идентификатор кодека/Подсказка : MP3
Продолжительность : 44 м.
Вид битрейта : Переменный
Битрейт : 192 Кбит/сек
Каналы : 2 канала
Частота : 48,0 КГц
Метод сжатия : С потерями
Размер потока : 60,4 Мбайт (11%)
Выравнивание : Соединение по промежуткам
Продолжительность промежутка : 24 мс. (0,58 видеокадр)
Время предзагрузки промежутка : 484 мс.
Библиотека кодирования : LAME3.97b
Настройки программы : -m j -V 4 -q 3 -lowpass 18.6 --abr 192
-

Скриншот c названием фильма

-Скриншоты:
-

Еще

-

Внимание! Раздача ведётся путём добавления новых серий!

Раздача ведётся путём добавления новых серий; при каждом добавлении создаётся новый торрент.
Чтобы начать докачку новой серии, пользователям необходимо сделать следующее:
1. остановить скачивание,
2. удалить старый торрент у себя из клиента (старые серии удалять не надо),
3. скачать новый торрент и запустить его у себя в клиенте вместо старого, при этом указать клиенту путь в старую папку, куда и должно происходить скачивание новых серий.
Ваш клиент при этом должен произвести хеширование (проверку) старой папки (если не производит сам - помогите ему сделать это), и будет докачивать только те серии которых у вас ещё нет. Старые серии при этом не удаляются, а продолжают раздаваться!
Eсли вы уже удалили старые серии, то предотвратить повторную закачку старых серий можно, отжав галочку в соответствующих местах при запуске нового торрента. По возможности, желательно не удалять старые серии как можно дольше, чтобы релизёр не столько продолжал раздавать старые серии, а смог сконцентрироваться на новых.
Совет для тех, кто не хочет ждать перехеширования:
Создайте ещё одну папку рядом с папкой сериала (рядом, а не в ней!!!). Каждую новую серию после удачной загрузки копируйте в новую папку так чтобы ваша основная папка всегда была пуста. Когда ваш новый торрент предложит вам закачать все файлы, выберете только последнюю. Для сидирования же укажите адрес новой папки.
Как закачать отдельный файл из торрента или докачать ранее пропущенные файлы торрента!
-

Как закачать отдельный файл

1. Открыть торрент
2. Снять галки с тех файлов торрента, которые мы не хотим закачивать. Оставляем только на нужных нам файлах (файле).
3. Нажать О.К.
В клиенте utorrent
Инструкция
1) Открыть торрент

2) Снять галки с тех файлов торрента, которые мы не хотим закачивать:
* либо вручную, снимая с каждого файла галку( скрин №1)
* либо, нажав кнопку "Снять метки (Select None)", сняв сразу со всех файлов(скрин №2)
№1

№2

Оставляем только на нужных нам файлах (файле).

3)Нажать О.К
-Добавлена четырнадцатая серия первого сезона
Яндекс.Метрика
Рейтинг@Mail.ru