[ Сегодня на трекере фрилич! Идет свободное скачивание без начисления Download ]

Бэкстром / Backstrom / Сезон 1 / Серии: 4 из 13 (Сара Пиа Андерсон / Sarah Pia Anderson) [2015г., драма, комедия, криминал, ..., WEB-DLRip] MVO (Alternative Production)

 

Создавать темы 23-Фев-2015 05:09

Бэкстром / Backstrom- Русское название: Бэкстром
Оригинальное название: Backstrom
Страна: США
Год выпуска: 2015
Жанр: Детектив, Драма, Криминал-Премьера (мир): 22 января 2015, ...-Озвучка: Студия Alternative Production
Перевод: Многоголосый закадровый, профессиональный-Режиссер: Сара Пиа Андерсон / Sarah Pia Anderson, Адам Аркин / Adam Arkin, Алекс Чаппл / Alex Chapple , ...
Актеры: Рэйн Уилсон, Пейдж Кеннеди, Беатрис Розен, Женевьева Энджелсон, Деннис Хейсбёрт, Кристоффер Полаха, Томас Деккер, Бен Холлингсворт, Ризван Манжи, Инга Кадранел, ...-Описание фильма:
Детектив Эверет Бекстром обладает скверным характером и находится во власти дурных привычек. Он обидчив, вспыльчив, ленив, злоупотребляет спиртным и предвзято относится к миру. Эгоистичный детектив испытывает нежность к своим рыбкам и бутылке ликера. Однако именно Бекстрома назначают главой Портлендского спецотдела по расследованию особых преступлений, ведь несмотря на самоубийственное поведение, он блестящий сыщик. Эверет со своей командой эксцентричных криминалистов имеют дело с тяжкими и нашумевшими злодеяниями. Подчиненные терпят агрессивного и растрепанного босса, отдавая должное его потрясающему аналитическому мышлению. Словно через сито, Бекстром просеивает все улики, вытаскивая на поверхность темные детали. Его логические выводы и интуиция бьют в десятку. Но надолго ли алкоголик, страдающий ожирением, сохранит ясность ума?-Сезон: 1
Серии: 4 из 13 серий
Продолжительность: ~ 00:44:00 мин серия-
Качество видео: WEB-DLRip
Формат: AVI
Видеокодек: XviD
Аудиокодек: Mp3
Видео: MPEG-4 Visual at 1695 Кбит/сек: 720 x 400 (1.800) at 23.976 fps, 0.24 Бит/Пиксели
Аудио: MPEG Audio at 192 Кбит/сек: 2 канала, 48,0 КГц
- -

Список серий:

  • Победитель дракона (Dragon Slayer)
  • Белла (Bella)
  • По себе не судят (Takes One to Know One)
  • (I Am a Bird Now)


  • (Bogeyman)

  • (Ancient, Chinese, Secret)

  • (The Inescapable Truth)

  • (Love Is a Rose and You Better Not Pick It)

  • (I Like to Watch)

  • (The )

  • (The )

  • (Corkscrewed)

  • (The )
-

MediaInfo:

Общее
Полное имя : E:\_Сериалы\_Сериалы\Бэкстром\Бэкстром [Alternative Production]\Backstrom s01e01 [Alt Pro].avi
Формат : AVI
Формат/Информация : Audio Video Interleave
Размер файла : 597 Мбайт
Продолжительность : 44 м.
Общий поток : 1897 Кбит/сек
Библиотека кодирования : VirtualDub build 32842/release
Видео
Идентификатор : 0
Формат : MPEG-4 Visual
Профиль формата : Advanced [email protected]
Параметр BVOP формата : 2
Параметр QPel формата : Нет
Параметр GMC формата : Без точки перехода
Параметр матрицы формата : Default (H.263)
Режим смешивания : Сжатый битовый поток
Идентификатор кодека : XVID
Идентификатор кодека/Подсказка : XviD
Продолжительность : 44 м.
Битрейт : 1695 Кбит/сек
Ширина : 720 пикселей
Высота : 400 пикселей
Соотношение сторон : 16:9
Частота кадров : 23,976 кадра/сек
Цветовое пространство : YUV
Субдискретизация насыщенности : 4:2:0
Битовая глубина : 8 бит
Тип развёртки : Прогрессивная
Метод сжатия : С потерями
Бит/(Пиксели*Кадры) : 0.245
Размер потока : 534 Мбайт (89%)
Библиотека кодирования : XviD 73
Аудио
Идентификатор : 1
Формат : MPEG Audio
Версия формата : Version 1
Профиль формата : Layer 3
Режим : Joint stereo
Идентификатор кодека : 55
Идентификатор кодека/Подсказка : MP3
Продолжительность : 44 м.
Вид битрейта : Постоянный
Битрейт : 192 Кбит/сек
Каналы : 2 канала
Частота : 48,0 КГц
Метод сжатия : С потерями
Размер потока : 60,5 Мбайт (10%)
Выравнивание : Разделение по промежуткам
Продолжительность промежутка : 42 мс. (1,00 видеокадр)
Время предзагрузки промежутка : 500 мс.
-

Скриншот c названием фильма

-Скриншоты:
-

Еще

-

Внимание! Раздача ведётся путём добавления новых серий!

Раздача ведётся путём добавления новых серий; при каждом добавлении создаётся новый торрент.
Чтобы начать докачку новой серии, пользователям необходимо сделать следующее:
1. остановить скачивание,
2. удалить старый торрент у себя из клиента (старые серии удалять не надо),
3. скачать новый торрент и запустить его у себя в клиенте вместо старого, при этом указать клиенту путь в старую папку, куда и должно происходить скачивание новых серий.
Ваш клиент при этом должен произвести хеширование (проверку) старой папки (если не производит сам - помогите ему сделать это), и будет докачивать только те серии которых у вас ещё нет. Старые серии при этом не удаляются, а продолжают раздаваться!
Eсли вы уже удалили старые серии, то предотвратить повторную закачку старых серий можно, отжав галочку в соответствующих местах при запуске нового торрента. По возможности, желательно не удалять старые серии как можно дольше, чтобы релизёр не столько продолжал раздавать старые серии, а смог сконцентрироваться на новых.
Совет для тех, кто не хочет ждать перехеширования:
Создайте ещё одну папку рядом с папкой сериала (рядом, а не в ней!!!). Каждую новую серию после удачной загрузки копируйте в новую папку так чтобы ваша основная папка всегда была пуста. Когда ваш новый торрент предложит вам закачать все файлы, выберете только последнюю. Для сидирования же укажите адрес новой папки.
Как закачать отдельный файл из торрента или докачать ранее пропущенные файлы торрента!
-

Как закачать отдельный файл

1. Открыть торрент
2. Снять галки с тех файлов торрента, которые мы не хотим закачивать. Оставляем только на нужных нам файлах (файле).
3. Нажать О.К.
В клиенте utorrent
Инструкция
1) Открыть торрент

2) Снять галки с тех файлов торрента, которые мы не хотим закачивать:
* либо вручную, снимая с каждого файла галку( скрин №1)
* либо, нажав кнопку "Снять метки (Select None)", сняв сразу со всех файлов(скрин №2)
№1

№2

Оставляем только на нужных нам файлах (файле).

3)Нажать О.К
-Добавлена четвертая серия первого сезона
Яндекс.Метрика
Рейтинг@Mail.ru