Шесть дней, семь ночей / Six Days Seven Nights (Айвен Райтман / Ivan Reitman) [1998, США, комедия, WEB-DLRip] DVO (ОРТ) + AVO (диктор C.D.V)

 

Создавать темы 20-Фев-2015 10:57

Шесть дней, семь ночей
Six Days Seven Nights

Страна: США
Жанр: комедия
Год выпуска: 1998
Продолжительность: 01:41:59-Перевод 1: Профессиональный (двухголосый закадровый) ОРТ
Перевод 2: Авторский (одноголосый закадровый) диктор C.D.V
Cубтитры: нет
Оригинальная аудиодорожка: нет-Режиссер: Айвен Райтман / Ivan Reitman
В ролях: Харрисон Форд, Энн Хеч, Дэвид Швиммер, Жаклин Обрадорс, Клифф Кёртис, Дэнни Трехо, Темуэра Моррисон, Эллисон Дженни, Эми Седарис-Описание: Шесть дней, семь ночей провели на необитаемом острове потерпевшие крушение пассажирка маленького самолета и его пилот. Начав свои приключения со взаимной неприязни и перепалок, они постепенно начинают сближаться...--Сэмпл: 2минуты-Качество видео: WEB-DLRip (спасибо Dreamcatcher с hdclub)
Формат видео: AVI
Видео: XVID, 720x304, 2,35:1, 23.976 кадра/сек, 1680 Кбит/сек
Аудио 1: AC-3, 48,0 КГц, 192 Кбит/сек, 2 канала (двухголосый ОРТ)
Аудио 2: AC-3, 48,0 КГц, 192 Кбит/сек, 2 канала (диктор C.D.V)

Доп. информация

Доп. информация:
О переводах: Перевод диктор C.D.V на трекере появляется впервые
Качество: VHS (ОРТ) / VCD (диктор C.D.V)
В озвучке ОРТ - первые 16 минут из дороги bora86bora, так как у серый75 они отсутствовали
В озвучке диктор C.D.V - начальные и финальные титры из оригинала, так как у Lalola они отсутствовали
Синхронизация: mister55555
За перевод ОРТ большое спасибо серый75 и bora86bora
За перевод диктор C.D.V большое спасибо

MediaInfo

Общее
Полное имя : D:\с диска Е\инет\Раздачи\Шесть дней, семь ночей.1998.WEB-DLRip\Шесть дней, семь ночей.1998.WEB-DLRip.avi
Формат : AVI
Формат/Информация : Audio Video Interleave
Размер файла : 1,48 Гбайт
Продолжительность : 1 ч. 41 м.
Общий поток : 2078 Кбит/сек
Дата записи : 20.02.2015
Программа кодирования : VirtualDubModRus 1.5.10.2 (build 2542/release)
Библиотека кодирования : VirtualDubMod build 2542/release
Правообладатель : mister55555
Примечание : для rutracker.org
Видео
Идентификатор : 0
Формат : MPEG-4 Visual
Профиль формата : Advanced [email protected]
Параметр BVOP формата : 1
Параметр QPel формата : Нет
Параметр GMC формата : Без точки перехода
Параметр матрицы формата : Выборочная
Идентификатор кодека : XVID
Идентификатор кодека/Подсказка : XviD
Продолжительность : 1 ч. 41 м.
Битрейт : 1680 Кбит/сек
Ширина : 720 пикселей
Высота : 304 пикселя
Соотношение сторон : 2,35:1
Частота кадров : 23,976 кадра/сек
Цветовое пространство : YUV
Субдискретизация насыщенности : 4:2:0
Битовая глубина : 8 бит
Тип развёртки : Прогрессивная
Метод сжатия : С потерями
Бит/(Пиксели*Кадры) : 0.320
Размер потока : 1,20 Гбайт (81%)
Библиотека кодирования : XviD 73
Аудио #1
Идентификатор : 1
Формат : AC-3
Формат/Информация : Audio Coding 3
Расширение режима : CM (complete main)
Параметр Endianness формата : Big
Идентификатор кодека : 2000
Продолжительность : 1 ч. 41 м.
Вид битрейта : Постоянный
Битрейт : 192 Кбит/сек
Каналы : 2 канала
Расположение каналов : Front: L R
Частота : 48,0 КГц
Битовая глубина : 16 бит
Метод сжатия : С потерями
Размер потока : 140 Мбайт (9%)
Выравнивание : Разделение по промежуткам
Продолжительность промежутка : 42 мс. (1,00 видеокадр)
Время предзагрузки промежутка : 500 мс.
Заголовок : многоголосый ОРТ
Аудио #2
Идентификатор : 2
Формат : AC-3
Формат/Информация : Audio Coding 3
Расширение режима : CM (complete main)
Параметр Endianness формата : Big
Идентификатор кодека : 2000
Продолжительность : 1 ч. 41 м.
Вид битрейта : Постоянный
Битрейт : 192 Кбит/сек
Каналы : 2 канала
Расположение каналов : Front: L R
Частота : 48,0 КГц
Битовая глубина : 16 бит
Метод сжатия : С потерями
Размер потока : 140 Мбайт (9%)
Выравнивание : Разделение по промежуткам
Продолжительность промежутка : 42 мс. (1,00 видеокадр)
Время предзагрузки промежутка : 500 мс.
Заголовок : авторский Диктор C.D.V

Скриншоты

Яндекс.Метрика
Рейтинг@Mail.ru